+100


Топ за 24 часа
 
 

[Цитировать]

Лего. Фильм / The Lego Movie
«Кто был никем, тот всем ещё покажет»
Год выпуска: 2014
Страна: Австралия , США , Дания
Жанр: мультфильм, фэнтези, комедия, приключения, семейный
Продолжительность: 01:40:33
Перевод: Профессиональный (дублированный)[цифровая лицензия iTunes]
Субтитры: русские, украинские (полные и форсированные) - отдельно
Режиссер: Фил Лорд, Кристофер Миллер
В ролях: Крис Прэтт (Chris Pratt), Уилл Феррелл (Will Ferrell), Элизабет Бэнкс (Elizabeth Banks), Уилл Арнетт (Will Arnett), Лиам Нисон (Liam Neeson), Морган Фриман (Morgan Freeman), Крэйг Берри (Craig Berry), Элисон Бри (Alison Brie)
Описание: Обычная лего-фигурка соглашается присоединиться к походу против злого лего-диктатора, планирующего склеить вместе всю вселенную…
Бюджет: $60 000 000
Сборы в США: $254 317 293
Сборы в мире: + $206 400 000 = $460 717 293
Сборы в России: $6 175 462
Рейтинг MPAA:

Качество: WEB-DLRip
Формат: AVI
Видео кодек: XviD
Аудио кодек: AC3
Видео: 720x304 (2.35:1), 23.976 fps, XviD, 1 553 Kbps
Аудио #1: AC3, 384 Kbps, 48.0 KHz, 6 ch

MediaInfo

General
Complete name : Lego.Film.2014.D.WEB-DLRip.avi
Format : AVI
Format/Info : Audio Video Interleave
File size : 1.37 GiB
Duration : 1h 40mn
Overall bit rate : 1 946 Kbps
Writing application : VirtualDubMod 1.5.10.3 | www.virtualdub-fr.org || (build 2550/release)
Writing library : VirtualDubMod build 2550/release
Video
ID : 0
Format : MPEG-4 Visual
Format profile : Advanced Simple@L5
Format settings, BVOP : Yes
Format settings, QPel : No
Format settings, GMC : No warppoints
Format settings, Matrix : Default (H.263)
Codec ID : XVID
Codec ID/Hint : XviD
Duration : 1h 40mn
Bit rate : 1 553 Kbps
Width : 720 pixels
Height : 304 pixels
Display aspect ratio : 2.35:1
Frame rate : 23.976 fps
Color space : YUV
Chroma subsampling : 4:2:0
Bit depth : 8 bits
Scan type : Progressive
Bits/(Pixel*Frame) : 0.296
Stream size : 1.09 GiB (80%)
Writing library : XviD 1.2.1 (UTC 2008-12-04)
Audio
ID : 1
Format : AC-3
Format/Info : Audio Coding 3
Mode extension : CM (complete main)
Codec ID : 2000
Duration : 1h 40mn
Bit rate mode : Constant
Bit rate : 384 Kbps
Channel(s) : 6 channels
Channel positions : Front: L C R, Side: L R, LFE
Sampling rate : 48.0 KHz
Bit depth : 16 bits
Stream size : 276 MiB (20%)
Alignment : Split accross interleaves
Interleave, duration : 42 ms (1.00 video frame)
Interleave, preload duration : 500 ms

Скриншоты





Показать сообщения:    

Текущее время: 11-Дек 13:07

Часовой пояс: UTC + 11


Вы не можете начинать темы
Вы не можете отвечать на сообщения
Вы не можете редактировать свои сообщения
Вы не можете удалять свои сообщения
Вы не можете голосовать в опросах
Вы не можете прикреплять файлы к сообщениям
Вы не можете скачивать файлы

Сайт не предоставляет электронные версии произведений, а занимается лишь коллекционированием и каталогизацией ссылок, присылаемых и публикуемых на форуме нашими читателями. Если вы являетесь правообладателем какого-либо представленного материала и не желаете, чтобы ссылка на него находилась в нашем каталоге, свяжитесь с нами, и мы незамедлительно удалим ее. Файлы для обмена на трекере предоставлены пользователями сайта, и администрация не несет ответственности за их содержание. Просьба не заливать файлы, защищенные авторскими правами, а также файлы нелегального содержания!