+100


Топ за 24 часа
 
 

[Цитировать]

Приключения мистера Пибоди и Шермана / Mr. Peabody & Sherman
«Наперегонки с историей»
Год выпуска: 2014
Страна: США
Жанр: мультфильм, фантастика, комедия, приключения, семейный
Продолжительность: 01:32:28
Перевод: Профессиональный (дублированный)[чистый звук]
Доп. информация: присутствуют вшитые китайские субтитры!
Режиссер: Роб Минкофф
В ролях: Тай Бурелл (Ty Burrell), Макс Чарльз (Max Charles), Эриель Винтер (Ariel Winter), Стефен Колбер (Stephen Colbert), Лесли Манн (Leslie Mann), Эллисон Дженни (Allison Janney), Стэнли Туччи (Stanley Tucci), Том МакГрат (Tom McGrath)
Описание: Мистер Пибоди — бизнесмен, изобретатель, ученый, нобелевский лауреат, гурман, двукратный олимпийский чемпион и гений… который кроме всего прочего является собакой. При помощи своего самого неординарного изобретения — машины ВЕЙБЕК — мистер Пибоди и его приемный сын Шерман мгновенно перемещаются в прошлое, где становятся свидетелями самых важных исторических событий и общаются с известными историческими персонажами. Но когда Шерман нарушает правила путешествий во времени, нашим героям приходится вновь отправиться в путь — на сей раз с целью восстановления цепи исторических событий и спасения будущего. Кроме того, мистеру Пибоди предстоит справиться с самой сложной для него задачей — стать настоящим отцом для Шермана.
Бюджет: $145 000 000
Сборы в США: $109 291 458
Сборы в мире: + $157 300 000 = $266 591 458
Сборы в России: $10 716 033
Рейтинг MPAA:

Качество: WEB-DL 720p
Формат: MKV
Видео кодек: AVC
Аудио кодек: AC3
Видео: 1280x720 (16:9), 25.000 fps, High@L4.1, 3 685 Kbps
Аудио #1: Rus AC3, 128 Kbps, 48.0 KHz, 2 ch
Аудио #2: Eng AC3, 256 Kbps, 48.0 KHz, 2 ch

Знаете ли Вы, что...

...
> Среди воспоминаний мистера Пибоди есть сцена на реке, когда девушка в египетской одежде находит колыбель с младенцем. Это аллюзия на биографию пророка Моисея, найденного и воспитанного дочерью фараона.
...
> Картину с Буллвинклем из Шоу Рокки и Буллвинкля (1959-1964) можно заметить в апартаментах мистера Пибоди.
...
> Робу Минкоффу всегда нравилась Невероятная история Пибоди (Peabody`s Improbable History) из серии историй про Рокки и Буллвинкля, и он на протяжении многих лет мечтал сделать ее полнометражную адаптацию.
...
> Мистер Пибоди и Шерман являются персонажами мультсериала Приключения бельчонка Рокки и лосенка Буллвинкля (1961-1964).
...
> Роберт Дауни-мл. рассматривался на роль мистера Пибоди.
...
> В кинотеатрах перед мультфильмом демонстрировался короткометражный мультфильм Почти дома (2014).
...
> Сцена, где Пибоди и Шерман запускают воздушных змеев, является аллюзией на опыты Бенджамина Франклина по изучению атмосферного электричества.
...
> В сериале Симпсоны мистер Пибоди и Шерман появляются в шестом сезоне в шестой серии (Theehouse of Horror V), где Гомер путешествует во времени.
...
> Машина времени в мультфильме называется Wabac machine. Это искаженное написание выражения Wayback machine.

MediaInfo

Формат : Matroska
Версия формата : Version 4 / Version 2
Размер файла : 2,68 Гбайт
Продолжительность : 1 ч. 32 м.
Режим общего битрейта : Переменный
Общий поток : 4151 Кбит/сек
Дата кодирования : UTC 2014-05-20 16:12:15
Программа кодирования : mkvmerge v6.5.0 ('Isn't she lovely') built on Oct 20 2013 12:50:05
Библиотека кодирования : libebml v1.3.0 + libmatroska v1.4.1
Видео
Идентификатор : 1
Формат : AVC
Формат/Информация : Advanced Video Codec
Профиль формата : High@L4.1
Параметр CABAC формата : Да
Параметр ReFrames формата : 3 кадра
Идентификатор кодека : V_MPEG4/ISO/AVC
Продолжительность : 1 ч. 32 м.
Вид битрейта : Переменный
Битрейт : 3685 Кбит/сек
Максимальный битрейт : 40,0 Мбит/сек
Ширина : 1280 пикселей
Высота : 720 пикселей
Соотношение сторон : 16:9
Режим частоты кадров : Постоянный
Частота кадров : 25,000 кадров/сек
Цветовое пространство : YUV
Субдискретизация насыщенности : 4:2:0
Битовая глубина : 8 бит
Тип развёртки : Прогрессивная
Бит/(Пиксели*Кадры) : 0.160
Размер потока : 2,38 Гбайт (89%)
Библиотека кодирования : x264 core 142 r2409 d6b4e63
Настройки программы : cabac=1 / ref=4 / deblock=1:-1:-1 / analyse=0x3:0x113 / me=umh / subme=8 / psy=1 / psy_rd=1.00:0.15 / mixed_ref=1 / me_range=16 / chroma_me=1 / trellis=1 / 8x8dct=1 / cqm=0 / deadzone=21,11 / fast_pskip=1 / chroma_qp_offset=-3 / threads=12 / lookahead_threads=2 / sliced_threads=0 / slices=4 / nr=0 / decimate=1 / interlaced=0 / bluray_compat=0 / constrained_intra=0 / bframes=3 / b_pyramid=1 / b_adapt=2 / b_bias=0 / direct=3 / weightb=1 / open_gop=0 / weightp=0 / keyint=24 / keyint_min=2 / scenecut=40 / intra_refresh=0 / rc_lookahead=24 / rc=crf / mbtree=1 / crf=19.5 / qcomp=0.60 / qpmin=10 / qpmax=51 / qpstep=4 / vbv_maxrate=40000 / vbv_bufsize=30000 / crf_max=0.0 / nal_hrd=vbr / filler=0 / ip_ratio=1.40 / aq=1:1.00
Default : Да
Forced : Нет
Основные цвета : BT.709
Характеристики трансфера : BT.709
Коэффициенты матрицы : BT.709
Аудио #1
Идентификатор : 2
Формат : AC-3
Формат/Информация : Audio Coding 3
Расширение режима : CM (complete main)
Параметр Endianness формата : Big
Идентификатор кодека : A_AC3
Продолжительность : 1 ч. 32 м.
Вид битрейта : Постоянный
Битрейт : 128 Кбит/сек
Каналы : 2 канала
Расположение каналов : Front: L R
Частота : 48,0 КГц
Битовая глубина : 16 бит
Метод сжатия : С потерями
Задержка видео : 24 мс.
Размер потока : 84,7 Мбайт (3%)
Default : Да
Forced : Нет
Аудио #2
Идентификатор : 3
Формат : AC-3
Формат/Информация : Audio Coding 3
Расширение режима : CM (complete main)
Параметр Endianness формата : Big
Идентификатор кодека : A_AC3
Продолжительность : 1 ч. 32 м.
Вид битрейта : Постоянный
Битрейт : 256 Кбит/сек
Каналы : 2 канала
Расположение каналов : Front: L R
Частота : 48,0 КГц
Битовая глубина : 16 бит
Метод сжатия : С потерями
Размер потока : 169 Мбайт (6%)
Default : Нет
Forced : Нет

Скриншоты





Показать сообщения:    

Текущее время: 07-Дек 21:33

Часовой пояс: UTC + 11


Вы не можете начинать темы
Вы не можете отвечать на сообщения
Вы не можете редактировать свои сообщения
Вы не можете удалять свои сообщения
Вы не можете голосовать в опросах
Вы не можете прикреплять файлы к сообщениям
Вы не можете скачивать файлы

Сайт не предоставляет электронные версии произведений, а занимается лишь коллекционированием и каталогизацией ссылок, присылаемых и публикуемых на форуме нашими читателями. Если вы являетесь правообладателем какого-либо представленного материала и не желаете, чтобы ссылка на него находилась в нашем каталоге, свяжитесь с нами, и мы незамедлительно удалим ее. Файлы для обмена на трекере предоставлены пользователями сайта, и администрация не несет ответственности за их содержание. Просьба не заливать файлы, защищенные авторскими правами, а также файлы нелегального содержания!