+100


 

[Цитировать]

-Ордена Великой Победы (2015) SATRip-Телекомпания: ВГТРК / Россия 1
Жанр: Документальный
Описание:
Июнь 1945 года. Маршал Советского Союза Жуков прибыл во Франкфурт-на-Майне, чтобы вручить Верховному Главнокомандующему союзными экспедиционными силами в Западной Европе, американскому генералу Эйзенхауэру, орден "Победа" - высшую военную награду СССР, которой его удостоили по решению Советского правительства. Эйзенхауэр был поражен - такого ордена он не видел еще никогда. Американские ювелиры, которым он показал орден, были восхищены им. И в то же время не могли поверить, что эта награда была изготовлена в Советском Союзе – стране, разрушенной войной.
Продолжительность: 00:43:38
Качество видео: SATRip
Видеокодек: Xvid
Битрейт видео: ~1537 Кбит/сек
Размер кадра: 720 x 400
Аудиокодек: AC3 2.0
Битрейт аудио: 192 Кбит/сек

Mediainfo:

Видео
Идентификатор                            : 0
Формат                                   : MPEG-4 Visual
Профиль формата                          : Advanced Simple@L5
Параметр BVOP формата                    : 1
Параметр QPel формата                    : Нет
Параметр GMC формата                     : Без точки перехода
Параметр матрицы формата                 : Выборочная
Идентификатор кодека                     : XVID
Идентификатор кодека/Подсказка           : XviD
Продолжительность                        : 43 м.
Битрейт                                  : 1537 Кбит/сек
Ширина                                   : 720 пикселей
Высота                                   : 400 пикселей
Соотношение сторон                       : 16:9
Частота кадров                           : 25,000 кадров/сек
Цветовое пространство                    : YUV
Субдискретизация насыщенности            : 4:2:0
Битовая глубина                          : 8 бит
Тип развёртки                            : Прогрессивная
Метод сжатия                             : С потерями
Бит/(Пиксели*Кадры)                      : 0.214
Размер потока                            : 480 Мбайт (88%)
Библиотека кодирования                   : XviD 73
Аудио
Идентификатор                            : 1
Формат                                   : AC-3
Формат/Информация                        : Audio Coding 3
Расширение режима                        : CM (complete main)
Параметр Endianness формата              : Big
Идентификатор кодека                     : 2000
Продолжительность                        : 43 м.
Вид битрейта                             : Постоянный
Битрейт                                  : 192 Кбит/сек
Каналы                                   : 2 канала
Расположение каналов                     : Front: L R
Частота                                  : 48,0 КГц
Битовая глубина                          : 16 бит
Метод сжатия                             : С потерями
Размер потока                            : 59,9 Мбайт (11%)
Выравнивание                             : Разделение по промежуткам
Продолжительность промежутка             : 40  мс. (1,00 видеокадр)
Время предзагрузки промежутка            : 500  мс.
Скриншоты:




Показать сообщения:    

Текущее время: 14-Дек 19:16

Часовой пояс: UTC + 11


Вы не можете начинать темы
Вы не можете отвечать на сообщения
Вы не можете редактировать свои сообщения
Вы не можете удалять свои сообщения
Вы не можете голосовать в опросах
Вы не можете прикреплять файлы к сообщениям
Вы не можете скачивать файлы

Сайт не предоставляет электронные версии произведений, а занимается лишь коллекционированием и каталогизацией ссылок, присылаемых и публикуемых на форуме нашими читателями. Если вы являетесь правообладателем какого-либо представленного материала и не желаете, чтобы ссылка на него находилась в нашем каталоге, свяжитесь с нами, и мы незамедлительно удалим ее. Файлы для обмена на трекере предоставлены пользователями сайта, и администрация не несет ответственности за их содержание. Просьба не заливать файлы, защищенные авторскими правами, а также файлы нелегального содержания!