+100


 

[Цитировать]

-PluralSight | Cisco CCNA Security Introduction to Network Security (2014) PCRec-Автор (режиссер): PluralSight
Жанр: Компьютерная безопасность
Язык: Английский
Продолжительность: 02:02:05
Качество видео: PCRec
Видеокодек: AVC
Битрейт видео: ~421 Kbps
Размер кадра: 1024 x 768
Аудиокодек: AAC 2.0
Битрейт аудио: 114 Kb/s (VBR), 2 Ch, 44100 Hz
Описание:
Курс по безопасности от компании Cisco.Часть 1 из 3 .Серия Cisco CCNA Security научит вас, как определять,выявлять уязвимости в сетях малых и средних предприятий и надёжно блокировать их. Этот курс также поможет вам улучшить ваши навыки в разработке инфраструктуры безопасности, признавая угрозы, и уменьшая угрозы безопасности.Этот курс идеально подходит для начинающих сетевых администраторов или администраторов сети, которые хотят построить крепкую основу современных концепций безопасности.

MediaInfo

Общее
Полное имя : 03.Security Policies\0300.Understanding Risk.mp4
Формат : MPEG-4
Профиль формата : Base Media / Version 2
Идентификатор кодека : mp42
Размер файла : 20,4 Мбайт
Продолжительность : 5 м. 18 с.
Режим общего битрейта : Переменный
Общий поток : 539 Кбит/сек
Дата кодирования : UTC 2013-10-02 06:57:40
Дата пометки : UTC 2013-10-02 06:58:07
Программа кодирования : HandBrake 0.9.8 2012071700
Видео
Идентификатор : 1
Формат : AVC
Формат/Информация : Advanced Video Codec
Профиль формата : Baseline@L3.1
Параметр CABAC формата : Нет
Параметр ReFrames формата : 2 кадра
Параметр GOP формата : M=1, N=50
Идентификатор кодека : avc1
Идентификатор кодека/Информация : Advanced Video Coding
Продолжительность : 5 м. 18 с.
Битрейт : 421 Кбит/сек
Ширина : 1024 пикселя
Высота : 768 пикселей
Соотношение сторон : 4:3
Режим частоты кадров : Переменный
Частота кадров : 15,000 кадров/сек
Минимальная частота кадров : 14,925 кадров/сек
Максимальная частота кадров : 15,152 кадров/сек
Цветовое пространство : YUV
Субдискретизация насыщенности : 4:2:0
Битовая глубина : 8 бит
Тип развёртки : Прогрессивная
Бит/(Пиксели*Кадры) : 0.036
Размер потока : 16,0 Мбайт (78%)
Библиотека кодирования : x264 core 120
Настройки программы : cabac=0 / ref=2 / deblock=1:0:0 / analyse=0x1:0x111 / me=umh / subme=6 / psy=1 / psy_rd=1.00:0.00 / mixed_ref=1 / me_range=16 / chroma_me=1 / trellis=0 / 8x8dct=0 / cqm=0 / deadzone=21,11 / fast_pskip=1 / chroma_qp_offset=-2 / threads=12 / sliced_threads=0 / nr=0 / decimate=1 / interlaced=0 / bluray_compat=0 / constrained_intra=0 / bframes=0 / weightp=0 / keyint=50 / keyint_min=15 / scenecut=40 / intra_refresh=0 / rc_lookahead=40 / rc=crf / mbtree=1 / crf=20.0 / qcomp=0.60 / qpmin=3 / qpmax=69 / qpstep=4 / ip_ratio=1.40 / aq=1:1.00
Дата кодирования : UTC 2013-10-02 06:57:40
Дата пометки : UTC 2013-10-02 06:58:07
Основные цвета : BT.709
Характеристики трансфера : BT.709
Коэффициенты матрицы : BT.709
colour_range : Limited
Аудио
Идентификатор : 2
Формат : AAC
Формат/Информация : Advanced Audio Codec
Профиль формата : LC
Идентификатор кодека : 40
Продолжительность : 5 м. 18 с.
Вид битрейта : Переменный
Битрейт : 114 Кбит/сек
Максимальный битрейт : 136 Кбит/сек
Каналы : 2 канала
Расположение каналов : Front: L R
Частота : 44,1 КГц
Метод сжатия : С потерями
Размер потока : 4,33 Мбайт (21%)
Заголовок : Stereo
Язык : English
Дата кодирования : UTC 2013-10-02 06:57:40
Дата пометки : UTC 2013-10-02 06:58:07




Показать сообщения:    

Текущее время: 20-Июн 11:16

Часовой пояс: UTC + 11


Вы не можете начинать темы
Вы не можете отвечать на сообщения
Вы не можете редактировать свои сообщения
Вы не можете удалять свои сообщения
Вы не можете голосовать в опросах
Вы не можете прикреплять файлы к сообщениям
Вы не можете скачивать файлы

Сайт не предоставляет электронные версии произведений, а занимается лишь коллекционированием и каталогизацией ссылок, присылаемых и публикуемых на форуме нашими читателями. Если вы являетесь правообладателем какого-либо представленного материала и не желаете, чтобы ссылка на него находилась в нашем каталоге, свяжитесь с нами, и мы незамедлительно удалим ее. Файлы для обмена на трекере предоставлены пользователями сайта, и администрация не несет ответственности за их содержание. Просьба не заливать файлы, защищенные авторскими правами, а также файлы нелегального содержания!