+100


 

[Цитировать]

-TheTunes.Ru | Профессиональное сведение дома GOLD (2014) PCRec-Автор (режиссер): TheTunes.Ru
Жанр: Работа со звуком
Язык: Русский
Продолжительность: Более часа
Качество видео: PCRec
Видеокодек: AVC
Битрейт видео: ~1 030 Kbps, 25.000 fps
Размер кадра: 1920x1080, 16:9
Аудиокодек: AAC
Битрейт аудио: ~183 Kbps, 2 канала, 44.1 KHz
Описание:
Уникальные и 100% рабочие методики, благодаря которым можно быстро (буквально за 2 дня) делать качественное, профессиональное сведение.
Вы сможете добиваться звучания, как у фирменных, коммерческих треков.
Вы будете делать яркие, чистые и мощные миксы.
И как следствие - подписывать и издавать треки на лейблах.

Бонусы:

Что входит в комплект GOLD:
- Видеокурс «Профессиональное сведение дома»
- Эталонные спектры для iZotope Ozone 5
- Руководство к эталонным спектрам для iZotope Ozone 5
- Мультитрек Big Room House / Dutch House
- Мультитрек Progressive House
- Мультитрек Uplifting Trance / Melodic Trance
- Мультитрек Soulful House / Ibiza House
- Мультитрек Chillout / Downtempo
- Книга: «17 золотых правил профессионального сведение»
- Книга: «Обзор лучших плагинов для сведения»
- Чеклист «Последовательность профессионального сведения»
- Видео: «Как сделать громкий звук"
- Видео: «Секреты панорамирования»
- Видео: «Правильный баланс громкости. Эффективная методика»

MediaInfo:

Общее
Полное имя : F:\The Tunes - Профессиональное сведение дома\Content\lessons\2\2.3.mp4
Формат : MPEG-4
Профиль формата : Base Media / Version 2
Идентификатор кодека : mp42
Размер файла : 115 Мбайт
Продолжительность : 13 м.
Режим общего битрейта : Переменный
Общий поток : 1217 Кбит/сек
Дата кодирования : UTC 2014-07-06 11:11:30
Дата пометки : UTC 2014-07-06 11:29:24
Видео
Идентификатор : 1
Формат : AVC
Формат/Информация : Advanced Video Codec
Профиль формата : Main@L5.0
Параметр CABAC формата : Да
Параметр ReFrames формата : 5 кадров
Параметр GOP формата : M=4, N=25
Идентификатор кодека : avc1
Идентификатор кодека/Информация : Advanced Video Coding
Продолжительность : 13 м.
Вид битрейта : Переменный
Битрейт : 1030 Кбит/сек
Ширина : 1920 пикселей
Высота : 1080 пикселей
Соотношение сторон : 16:9
Режим частоты кадров : Постоянный
Частота кадров : 25,000 кадров/сек
Цветовое пространство : YUV
Субдискретизация насыщенности : 4:2:0
Битовая глубина : 8 бит
Тип развёртки : Прогрессивная
Бит/(Пиксели*Кадры) : 0.020
Размер потока : 97,7 Мбайт (85%)
Дата кодирования : UTC 2014-07-06 11:11:30
Дата пометки : UTC 2014-07-06 11:29:24
Основные цвета : BT.709
Характеристики трансфера : BT.709
Коэффициенты матрицы : BT.709
Аудио
Идентификатор : 2
Формат : AAC
Формат/Информация : Advanced Audio Codec
Профиль формата : LC
Идентификатор кодека : 40
Продолжительность : 13 м.
Вид битрейта : Переменный
Битрейт : 183 Кбит/сек
Максимальный битрейт : 310 Кбит/сек
Каналы : 2 канала
Расположение каналов : Front: L R
Частота : 44,1 КГц
Метод сжатия : С потерями
Задержка видео : 80 мс.
Размер потока : 17,4 Мбайт (15%)
Дата кодирования : UTC 2014-07-06 11:11:30
Дата пометки : UTC 2014-07-06 11:12:23
Скриншоты:




Показать сообщения:    

Текущее время: 20-Июн 11:15

Часовой пояс: UTC + 11


Вы не можете начинать темы
Вы не можете отвечать на сообщения
Вы не можете редактировать свои сообщения
Вы не можете удалять свои сообщения
Вы не можете голосовать в опросах
Вы не можете прикреплять файлы к сообщениям
Вы не можете скачивать файлы

Сайт не предоставляет электронные версии произведений, а занимается лишь коллекционированием и каталогизацией ссылок, присылаемых и публикуемых на форуме нашими читателями. Если вы являетесь правообладателем какого-либо представленного материала и не желаете, чтобы ссылка на него находилась в нашем каталоге, свяжитесь с нами, и мы незамедлительно удалим ее. Файлы для обмена на трекере предоставлены пользователями сайта, и администрация не несет ответственности за их содержание. Просьба не заливать файлы, защищенные авторскими правами, а также файлы нелегального содержания!