+100


Топ за 24 часа
 
 

[Цитировать]

Никогда не сдавайся 2 / Never Back Down 2Год выпуска: 2011
Страна: США
Киностудия: Baumgarten Management, Mandalay Entertainment, Sony Pictures
Жанр: Боевик
Продолжительность: 1:39:22
Перевод: Профессиональный (многоголосый) лицензия
Субтитры: нет
Оригинальная аудидорожка: нет
Режиссер: Майкл Джей Уайт / Michael Jai White
В ролях: Стейси Асаро, Грэйлен Брайант Бэнкс, Рас Блэквелл, Бо Брассо, Эдди Браво, Джуд Кэмбайс, Грант Кейс, Трейс Шерами, Марго Николь Кларк, Жерардо Девила...
Описание: Четверо бойцов объединяются под руководством бывшей восходящей звезды ММА — Смешанных Боевых Искусств, — чтобы в конечном счете сразиться друг с другом и определить сильнейшего из них.…- -Качество видео: DVDRip, источник DVD5
Формат видео: AVI
Видео: 704x384 (16:9), 25 fps, XviD ~ 1708 kbps avg, 0.253 bit/pixel
Аудио: Русский, 48 kHz, AC3, 6 ch, 384.00 kbps Constant

MediaInfo

Общее
Полное имя : Nikogda.ne.sdavajsja.2.2011.P.DVDRip.avi
Формат : AVI
Формат/Информация : Audio Video Interleave
Размер файла : 1,46 Гбайт
Продолжительность : 1 ч. 39 м.
Общий поток : 2101 Кбит/сек
Программа кодирования : VirtualDubMod 1.5.10.3 | www.virtualdub-fr.org || (build 2550/release)
Библиотека кодирования : VirtualDubMod build 2550/release
Видео
Идентификатор : 0
Формат : MPEG-4 Visual
Профиль формата : Advanced Simple@L5
Параметр BVOP формата : 1
Параметр QPel формата : Нет
Параметр GMC формата : Без точки перехода
Параметр матрицы формата : Выборочная
Идентификатор кодека : XVID
Идентификатор кодека/Подсказка : XviD
Продолжительность : 1 ч. 39 м.
Битрейт : 1708 Кбит/сек
Ширина : 704 пикселей
Высота : 384 пикселей
Соотношение сторон : 16:9
Частота кадров : 25,000 кадров/сек
Цветовое пространство : YUV
Субдискретизация насыщенности : 4:2:0
Битовая глубина : 8 бит
Тип развёртки : Прогрессивная
Метод сжатия : С потерями
Бит/(Пиксели*Кадры) : 0.253
Размер потока : 1,19 Гбайт (81%)
Библиотека кодирования : XviD 1.2.1 (UTC 2008-12-04)
Аудио
Идентификатор : 1
Формат : AC-3
Формат/Информация : Audio Coding 3
Расширение режима : CM (complete main)
Идентификатор кодека : 2000
Продолжительность : 1 ч. 39 м.
Вид битрейта : Постоянный
Битрейт : 384 Кбит/сек
Каналы : 6 каналов
Расположение каналов : Front: L C R, Side: L R, LFE
Частота : 48,0 КГц
Битовая глубина : 16 бит
Метод сжатия : С потерями
Размер потока : 273 Мбайт (18%)
Выравнивание : Разделение по промежуткам
Продолжительность промежутка : 40 мс. (1,00 видеокадр)
Время предзагрузки промежутка : 500 ms

Скриншоты





Показать сообщения:    

Текущее время: 07-Дек 06:49

Часовой пояс: UTC + 11


Вы не можете начинать темы
Вы не можете отвечать на сообщения
Вы не можете редактировать свои сообщения
Вы не можете удалять свои сообщения
Вы не можете голосовать в опросах
Вы не можете прикреплять файлы к сообщениям
Вы не можете скачивать файлы

Сайт не предоставляет электронные версии произведений, а занимается лишь коллекционированием и каталогизацией ссылок, присылаемых и публикуемых на форуме нашими читателями. Если вы являетесь правообладателем какого-либо представленного материала и не желаете, чтобы ссылка на него находилась в нашем каталоге, свяжитесь с нами, и мы незамедлительно удалим ее. Файлы для обмена на трекере предоставлены пользователями сайта, и администрация не несет ответственности за их содержание. Просьба не заливать файлы, защищенные авторскими правами, а также файлы нелегального содержания!