+100


Топ за 24 часа
 
 

[Цитировать]

-Гетеры майора Соколова (2014) DVDRip [H.264] (серии 1-8 из 8)-Русское название: Гетеры майора Соколова
Производство: "Mars Media", Россия
Год выпуска: 2014
Жанр: Военный, Драма
Режиссер: Бахтиёр Худойназаров
Актеры: Андрей Панин, Сергей Гармаш, Артур Смольянинов, Филипп Янковский, Татьяна Лютаева, Дарья Мельникова, Аглая Тарасова, Мария Антонова (II), Анастасия Микульчина, Алиса Горшкова, Оксана Базилевич, Юлиана Ромашина (Оррен), Анатолий Гущин, Олег Флеер, Сергей Тэсслер (VII), Дмитрий Поднозов, Олег Тилькин
Описание фильма:
Сентябрь 1939 года. Начало Второй Мировой войны. В Крым приезжает майор советской разведки Соколов. Его главная цель — выявить агентурную сеть террористической антисоветской организации РОВС. Руководит контрразведкой Русского общевоинского союза — штабс-капитан Семенов, псевдоним Крест.
Крест и Соколов — давние враги. Белые офицеры, в 1917 году они оказались по разные стороны баррикад. Они прекрасно знают друг друга в лицо, хотели бы и не один раз могли бы убить друг друга, но каждому из них нужна гибель системы, которую представляет противник. Оба — азартные игроки — они начинают сложную партию, в которой шансы на победу почти равны. Каждый из них готов жертвовать любыми фигурами, включая себя, ведь на кону — Родина. Одна. Но для каждого своя…

Дата российской премьеры: 24.03.2014
Продолжительность: 8 x ~ 00:50:00
Качество видео: DVDRip
Видеокодек: AVC/H.264
Битрейт видео: ~2000 Kbps
Размер кадра: 720x576 (16:9)
Аудиокодек: AC3
Битрейт аудио: 5.1 ch, 448 Kbps

MediaInfo:

Общее
Уникальный идентификатор : 227242849970345096335895309461648676133 (0xAAF56185525DD2D6B3743A090A799525)
Полное имя : E:\DOWNLOADS\Гетеры майора Соколова (2014) DVDRip [H.264]\Гетеры майора Соколова - 01 серия.mkv
Формат : Matroska
Версия формата : Version 2
Размер файла : 849 Мбайт
Продолжительность : 48 м.
Общий поток : 2449 Кбит/сек
Дата кодирования : UTC 2014-04-03 11:31:49
Программа кодирования : mkvmerge v6.1.0 ('Old Devil') built on Mar 4 2013 09:10:42
Библиотека кодирования : libebml v1.3.0 + libmatroska v1.4.0
Видео
Идентификатор : 1
Формат : AVC
Формат/Информация : Advanced Video Codec
Профиль формата : [url=mailto:High@L4.1]High@L4.1[/url]
Параметр CABAC формата : Да
Параметр ReFrames формата : 6 кадров
Идентификатор кодека : V_MPEG4/ISO/AVC
Продолжительность : 48 м.
Битрейт : 2000 Кбит/сек
Ширина : 720 пикселей
Высота : 576 пикселей
Соотношение сторон : 16:9
Режим частоты кадров : Постоянный
Частота кадров : 25,000 кадров/сек
Стандарт вещания : PAL
Цветовое пространство : YUV
Субдискретизация насыщенности : 4:2:0
Битовая глубина : 8 бит
Тип развёртки : Прогрессивная
Бит/(Пиксели*Кадры) : 0.193
Размер потока : 677 Мбайт (80%)
Библиотека кодирования : x264 core 138 r2356 a1d3d17
Настройки программы : cabac=1 / ref=6 / deblock=1:-2:-1 / analyse=0x3:0x113 / me=umh / subme=10 / psy=1 / psy_rd=1.00:0.05 / mixed_ref=1 / me_range=32 / chroma_me=1 / trellis=2 / 8x8dct=1 / cqm=0 / deadzone=21,11 / fast_pskip=0 / chroma_qp_offset=-3 / threads=9 / lookahead_threads=1 / sliced_threads=0 / nr=0 / decimate=0 / interlaced=0 / bluray_compat=0 / constrained_intra=0 / bframes=8 / b_pyramid=2 / b_adapt=2 / b_bias=0 / direct=3 / weightb=1 / open_gop=0 / weightp=2 / keyint=250 / keyint_min=25 / scenecut=40 / intra_refresh=0 / rc=2pass / mbtree=0 / bitrate=2000 / ratetol=1.0 / qcomp=0.60 / qpmin=0 / qpmax=69 / qpstep=4 / cplxblur=20.0 / qblur=0.5 / ip_ratio=1.40 / pb_ratio=1.30 / aq=1:1.00
Default : Да
Forced : Нет
Аудио
Идентификатор : 2
Формат : AC-3
Формат/Информация : Audio Coding 3
Расширение режима : CM (complete main)
Параметр Endianness формата : Big
Идентификатор кодека : A_AC3
Продолжительность : 48 м.
Вид битрейта : Постоянный
Битрейт : 448 Кбит/сек
Каналы : 6 каналов
Расположение каналов : Front: L C R, Side: L R, LFE
Частота : 48,0 КГц
Битовая глубина : 16 бит
Метод сжатия : С потерями
Размер потока : 155 Мбайт (18%)
Default : Да
Forced : Нет
Скриншоты:




Показать сообщения:    

Текущее время: 04-Дек 10:51

Часовой пояс: UTC + 11


Вы не можете начинать темы
Вы не можете отвечать на сообщения
Вы не можете редактировать свои сообщения
Вы не можете удалять свои сообщения
Вы не можете голосовать в опросах
Вы не можете прикреплять файлы к сообщениям
Вы не можете скачивать файлы

Сайт не предоставляет электронные версии произведений, а занимается лишь коллекционированием и каталогизацией ссылок, присылаемых и публикуемых на форуме нашими читателями. Если вы являетесь правообладателем какого-либо представленного материала и не желаете, чтобы ссылка на него находилась в нашем каталоге, свяжитесь с нами, и мы незамедлительно удалим ее. Файлы для обмена на трекере предоставлены пользователями сайта, и администрация не несет ответственности за их содержание. Просьба не заливать файлы, защищенные авторскими правами, а также файлы нелегального содержания!