+100


Топ за 24 часа
 
 

[Цитировать]

Голодные игры / The Hunger Games«Помни, кто твой настоящий враг»- Год выпуска: 2012
Страна: США
Жанр: Фантастика, боевик, триллер, приключения, экранизация, антиутопия
Продолжительность: 02:26:14
Перевод: Профессиональный (дублированный)
Язык субтитров: Русский, Английский
Режиссер:
  • Френсис Лоуренс
В ролях:
  • Дженнифер Лоуренс, Джош Хатчерсон, Сэм Клафлин, Джена Мэлоун, Вуди Харрельсон, Элизабет Бэнкс, Лиам Хемсворт, Дональд Сазерленд, Филип Сеймур Хоффман, Стэнли Туччи
Описание: Будущее. Деспотичное государство ежегодно устраивает показательные игры на выживание, за которыми в прямом эфире следит весь мир. Жребий участвовать в Играх выпадает юной Китнисс и тайно влюбленному в нее Питу. Они знакомы с детства, но теперь должны стать врагами. Ведь по нерушимому закону Голодных игр победить может только один из 24 участников. Судьям не важно кто выиграет, главное — зрелище. И на этот раз зрелище будет незабываемым. -Качество: Blu-Ray
Формат: BDMV
Видео кодек: MPEG-4 AVC
Аудио кодек: DTS, AC3
Видео: 1920x1080p / 23,976 fps, ~ 33776 kbps
Аудио:
DTS-HD Master Audio Russian 5.1 48 kHz ~1854 kbps
DTS-HD Master Audio English 4564 kbps 7.1 48 kHz
Субтитры: (PGS): Russian (BD RUS), Russian (Voronine), English

содержание дисков

На диске 1

• Беседа с Гэри Росом и Элвисом Митчелом (переведено проф. аудио озвучкой);
• Режиссер о подготовке к Играм (переведено проф. аудио озвучкой);
• Истории Трибутов (переведено проф. аудио озвучкой);
• На съемочной площадке;
• Интервью с главными актерами (11 шт.) (переведено проф. аудио озвучкой);
• Смотрите на блурэй (переведено проф. аудио озвучкой)

На диске 2

• Мир наблюдает: создание "Голодных Игр";
• Создатель Игр Сьюзан Коллинз: феномен Игр;
• Письма от Роуз Гарден;
• Контролируя Игры;
• Обсуждение фильма с Гарри Россом и Элвисом Митчеллом;
• Подготовка к Играм: режиссерский процесс;
• Пропаганда фильма;
• Галлерея.

На диске 3

• Истории от трибутов;
• Дневники Трибутов;
• Биографии;
• Снимая Трибутов;
• Фото-альбом.

BD info

1 диск

DISC INFO:
Disc Title: DISC1_MOVIE_BLUEBIRD
Disc Size: 49 829 313 636 bytes
Protection: AACS
BD-Java: No
Extras: 50Hz Content
BDInfo: 0.5.8
PLAYLIST REPORT:
Name: 00003.MPLS
Length: 2:22:33.378 (h:m:s.ms)
Size: 45 514 555 392 bytes
Total Bitrate: 42,57 Mbps
VIDEO:
Codec Bitrate Description
----- ------- -----------
MPEG-4 AVC Video 33776 kbps 1080p / 23,976 fps / 16:9 / High Profile 4.1
AUDIO:
Codec Language Bitrate Description
----- -------- ------- -----------
DTS-HD Master Audio Russian 1854 kbps 5.1 / 48 kHz / 1854 kbps / 16-bit (DTS Core: 5.1 / 48 kHz / 1509 kbps / 16-bit)
DTS-HD Master Audio English 4564 kbps 7.1 / 48 kHz / 4564 kbps / 24-bit (DTS Core: 5.1 / 48 kHz / 1509 kbps / 24-bit)
SUBTITLES:
Codec Language Bitrate Description
----- -------- ------- -----------
Presentation Graphics Russian 22,544 kbps
Presentation Graphics Russian 21,993 kbps
Presentation Graphics English 23,383 kbps
FILES:
Name Time In Length Size Total Bitrate
---- ------- ------ ---- -------------
00005.M2TS 0:00:00.000 2:22:33.378 45 514 555 392 42 570
CHAPTERS:
Number Time In Length Avg Video Rate Max 1-Sec Rate Max 1-Sec Time Max 5-Sec Rate Max 5-Sec Time Max 10Sec Rate Max 10Sec Time Avg Frame Size Max Frame Size Max Frame Time
------ ------- ------ -------------- -------------- -------------- -------------- -------------- -------------- -------------- -------------- -------------- --------------
1 0:00:00.000 0:12:31.542 34 266 kbps 39 091 kbps 00:06:01.736 37 179 kbps 00:05:57.690 36 937 kbps 00:05:52.727 178 639 bytes 484 757 bytes 00:01:35.261
2 0:12:31.542 0:12:30.499 36 505 kbps 39 182 kbps 00:13:22.176 37 262 kbps 00:13:18.047 36 820 kbps 00:16:30.572 190 319 bytes 415 466 bytes 00:12:32.877
3 0:25:02.042 0:12:30.541 36 455 kbps 39 848 kbps 00:36:38.738 37 094 kbps 00:27:35.236 36 884 kbps 00:31:57.999 190 062 bytes 448 354 bytes 00:36:44.911
4 0:37:32.583 0:13:01.238 36 231 kbps 41 516 kbps 00:41:30.946 37 474 kbps 00:41:26.942 37 003 kbps 00:41:21.896 188 892 bytes 428 944 bytes 00:49:34.221
5 0:50:33.822 0:12:30.374 36 474 kbps 40 322 kbps 00:55:42.505 37 122 kbps 00:51:36.301 36 822 kbps 00:57:51.676 190 158 bytes 431 889 bytes 00:52:38.155
6 1:03:04.197 0:12:00.803 35 978 kbps 44 020 kbps 01:07:01.100 37 654 kbps 01:08:47.790 37 103 kbps 01:13:39.706 187 575 bytes 547 620 bytes 01:10:37.441
7 1:15:05.000 0:12:30.583 35 942 kbps 41 379 kbps 01:18:09.393 37 383 kbps 01:18:05.389 36 992 kbps 01:24:48.208 187 385 bytes 589 691 bytes 01:24:58.218
8 1:27:35.583 0:12:30.916 34 727 kbps 41 100 kbps 01:32:42.473 37 310 kbps 01:29:40.333 36 939 kbps 01:29:35.328 181 052 bytes 549 138 bytes 01:38:01.750
9 1:40:06.500 0:14:01.173 35 719 kbps 40 807 kbps 01:44:35.352 37 185 kbps 01:46:07.861 36 920 kbps 01:46:04.775 186 223 bytes 549 164 bytes 01:52:11.683
10 1:54:07.674 0:11:00.493 34 833 kbps 42 455 kbps 02:01:09.095 37 596 kbps 02:00:35.728 37 070 kbps 02:01:00.086 181 604 bytes 551 967 bytes 02:00:07.158
11 2:05:08.167 0:11:12.505 26 473 kbps 39 129 kbps 02:09:52.159 37 211 kbps 02:09:48.197 36 860 kbps 02:10:22.898 138 016 bytes 399 516 bytes 02:09:17.499
12 2:16:20.672 0:06:12.705 7 714 kbps 12 573 kbps 02:16:56.875 12 286 kbps 02:16:54.331 11 613 kbps 02:16:52.454 40 231 bytes 300 013 bytes 02:16:55.624

2 диск

DISC INFO:
Disc Title: DISC2_BONUS_BLUEBIRD
Disc Size: 44 199 293 219 bytes
Protection: AACS
BD-Java: Yes
BDInfo: 0.5.8
PLAYLIST REPORT:
Name: 00463.MPLS
Length: 2:02:00.062 (h:m:s.ms)
Size: 30 825 363 456 bytes
Total Bitrate: 33,69 Mbps
VIDEO:
Codec Bitrate Description
----- ------- -----------
MPEG-4 AVC Video 31985 kbps 1080p / 23,976 fps / 16:9 / High Profile 4.1
AUDIO:
Codec Language Bitrate Description
----- -------- ------- -----------
Dolby Digital Audio English 192 kbps 2.0 / 48 kHz / 192 kbps
FILES:
Name Time In Length Size Total Bitrate
---- ------- ------ ---- -------------
00472.M2TS 0:00:00.000 0:00:35.076 145 975 296 33 293
00464.M2TS 0:00:35.076 0:11:16.717 2 850 097 152 33 693
00465.M2TS 0:11:51.794 0:20:24.264 5 155 307 520 33 688
00466.M2TS 0:32:16.059 0:14:43.048 3 719 706 624 33 699
00467.M2TS 0:46:59.107 0:13:29.475 3 409 864 704 33 700
00468.M2TS 1:00:28.583 0:15:21.962 3 883 855 872 33 701
00469.M2TS 1:15:50.545 0:09:47.169 2 473 021 440 33 694
00470.M2TS 1:25:37.715 0:22:10.329 5 603 629 056 33 698
00471.M2TS 1:47:48.044 0:14:12.017 3 583 905 792 33 651

3 диск

DISC INFO:
Disc Title: DISC3_BONUS_BLUEBIRD
Disc Size: 12 915 063 419 bytes
Protection: AACS
BD-Java: Yes
BDInfo: 0.5.8
PLAYLIST REPORT:
Name: 00451.MPLS
Length: 0:17:46.106 (h:m:s.ms)
Size: 4 490 588 160 bytes
Total Bitrate: 33,70 Mbps
VIDEO:
Codec Bitrate Description
----- ------- -----------
MPEG-4 AVC Video 31993 kbps 1080p / 23,976 fps / 16:9 / High Profile 4.1
AUDIO:
Codec Language Bitrate Description
----- -------- ------- -----------
Dolby Digital Audio English 192 kbps 2.0 / 48 kHz / 192 kbps / DN -4dB

Скриншоты





Показать сообщения:    

Текущее время: 03-Дек 17:46

Часовой пояс: UTC + 11


Вы не можете начинать темы
Вы не можете отвечать на сообщения
Вы не можете редактировать свои сообщения
Вы не можете удалять свои сообщения
Вы не можете голосовать в опросах
Вы не можете прикреплять файлы к сообщениям
Вы не можете скачивать файлы

Сайт не предоставляет электронные версии произведений, а занимается лишь коллекционированием и каталогизацией ссылок, присылаемых и публикуемых на форуме нашими читателями. Если вы являетесь правообладателем какого-либо представленного материала и не желаете, чтобы ссылка на него находилась в нашем каталоге, свяжитесь с нами, и мы незамедлительно удалим ее. Файлы для обмена на трекере предоставлены пользователями сайта, и администрация не несет ответственности за их содержание. Просьба не заливать файлы, защищенные авторскими правами, а также файлы нелегального содержания!