+100


 

[Цитировать]

Вий
«Не бойся...»
Год выпуска: 2013
Страна: Россия , Украина , Германия , Великобритания , Чехия
Жанр: фэнтези, триллер, приключения
Продолжительность: 02:10:12
Перевод: Оригинал [лицензия]
Режиссер: Олег Степченко
В ролях: Джейсон Флеминг, Андрей Смоляков, Алексей Чадов, Александр Яковлев, Игорь Жижикин, Агния Дитковските, Ольга Зайцева, Валерий Золотухин, Виктор Бычков, Юрий Цурило, Анна Чурина, Чарльз Дэнс, Алексей Петрухин, Олег Тактаров, Нина Русланова, Александр Карпов, Алексей Огурцов, Иван Моховиков, Эмма Черна, Анатолий Гущин
Описание: Начало XVIII века. Картограф Джонатан Грин совершает научное путешествие из Европы на Восток. Проследовав через Трансильванию и преодолев Карпатские горы, он попадает в затерянную среди непроходимых лесов деревушку. Только воля случая и густой туман могли занести его в это проклятое место. Народ, живущий здесь, не похож ни на один доселе виданный путешественником. Эти люди, оградив себя от остального мира глубоким рвом, наивно верят, что смогут уберечься от нечисти, не понимая, что она уже давно поселилась в их душах и только ждёт случая, чтобы вырваться наружу. Даже в страшном сне учёный-материалист не предполагал, что здесь ему уготована встреча с верным слугой дьявола.
Бюджет: $26 000 000
Сборы в России: $32 851 484

Качество: BDRip 1080p 3D (HOU)
Формат: MKV
Видео кодек: AVC
Аудио кодек: DTS
Видео: 1920x1080 (16:9), 23.976 fps, High@L5.1, 17.6 Mbps
Аудио #1: DTS, 1 510 Kbps, 48.0 KHz, 6 ch

Знаете ли Вы, что...

...
> Фильм снят по одноименной повести Николая Гоголя.
> Самому молодому актеру фильма во время съемок было 8 месяцев, самому старшему — 71 год.
> Специально для съемок фильма была создана технология, названная «локальный GPS», которая решила проблему совмещения виртуальных и реальных декораций.
> Первоначально чтобы показать, что картина находится в производстве, Алексей Петрухин и Олег Степченко в 2006 году за 18 часов сняли рекламный ролик фильма, в котором роль Хомы Брута исполнил сам Петрухин. В начале 2007 года этот тизер был запущен в кинотеатры, хотя ещё не был написан сценарий, производство фильма фактически началось только через год, а съемки были закончены только в марте 2012 года.
> На роль главного героя — путешественника и картографа Джонатана Грина — рассматривались Венсан Кассель, Кристиан Слейтер, Тим Рот, Шон Бин, Джейсон Стэйтем, Брэд Питт, Брюс Уиллис, Киану Ривз и Пирс Броснан. С каждым из актеров были проведены официальные переговоры.
> Прообразом главного героя — Джонатана Грина — послужил Гийом Левассер де Боплан (1595-1685) — французский инженер и военный картограф, автор книг «Описание Украины» и «От Трансильвании до Московии».
> Карета главного героя была специально разработана и построена на одном из немецких автомобильных концернов. Конструкция получилась настолько современной, что по своим техническим характеристикам может соперничать с новейшими автомобилями, но внешне осталась образцом транспорта XVIII века. Стоимость кареты составила 75 000 долларов. Также существует карета-дублер стоимостью 23 000 долларов, которая использовалась для съемок интерьера.
> Общее число участников съемочной группы за все время работы над картиной составило 923 человека.
> Работа над декорациями заняла более 6 месяцев, и в результате, была построена целая деревня из 21 дома, со сторожевой вышкой, высоким частоколом, старинными пушками и иными атрибутами времен, характерными для Украины XVIII века.
> По словам Валерия Золотухина, для него самым сложным моментом во время съемок стало курение трубки. Как оказалось, Валерий Сергеевич уже давно бросил эту вредную привычку.
> В фильме должна была сниматься модель Наталья Водянова, но ей по контракту было запрещено менять внешность. Для роли требовалось постричь и перекрасить волосы, поэтому на роль Настуси взяли Агнию Дитковските, которая не так трепетно относилась к статичности своего образа.
> Для одного только путешественника Джонатана Грина было разработано пять образов, предполагающих разный грим и разные костюмы.
> Крылья персонажей-монстров были изготовлены и сняты отдельно, так как синхронизировать их вживую было сложно — они были очень тяжелые.
> Национальная почтовая служба Чехии выпустила серию коллекционных почтовых марок с героями фильма.

MediaInfo

General
Complete name : Viy.2014.O.BDRip.1080p.3D.HOU.mkv
Format : Matroska
File size : 17.7 GiB
Duration : 2h 10mn
Overall bit rate : 19.5 Mbps
Movie name : VIY_3D.Title2.Bluray3DRip
Encoded date : UTC 2014-03-15 16:51:52
Writing application : mkvmerge v6.1.0 ('Old Devil') built on Mar 4 2013 09:10:42
Writing library : libebml v1.3.0 + libmatroska v1.4.0
Video
ID : 1
Format : AVC
Format/Info : Advanced Video Codec
Format profile : High@L5.1
Format settings, CABAC : Yes
Format settings, ReFrames : 2 frames
Muxing mode : Container profile=Unknown@5.1
Codec ID : V_MPEG4/ISO/AVC
Duration : 2h 10mn
Bit rate : 17.6 Mbps
Width : 1 920 pixels
Height : 1 080 pixels
Display aspect ratio : 16:9
Frame rate : 23.976 fps
Color space : YUV
Chroma subsampling : 4:2:0
Bit depth : 8 bits
Scan type : Progressive
Bits/(Pixel*Frame) : 0.354
Stream size : 16.0 GiB (90%)
Writing library : x264 core
Color primaries : BT.709-5, BT.1361, IEC 61966-2-4, SMPTE RP177
Transfer characteristics : BT.709-5, BT.1361
Matrix coefficients : BT.709-5, BT.1361, IEC 61966-2-4 709, SMPTE RP177
Audio
ID : 2
Format : DTS
Format/Info : Digital Theater Systems
Codec ID : A_DTS
Duration : 2h 10mn
Bit rate mode : Constant
Bit rate : 1 510 Kbps
Channel(s) : 6 channels
Channel positions : Front: L C R, Side: L R, LFE
Sampling rate : 48.0 KHz
Bit depth : 24 bits
Stream size : 1.37 GiB (8%)

Скриншоты





Показать сообщения:    

Текущее время: 07-Дек 21:36

Часовой пояс: UTC + 11


Вы не можете начинать темы
Вы не можете отвечать на сообщения
Вы не можете редактировать свои сообщения
Вы не можете удалять свои сообщения
Вы не можете голосовать в опросах
Вы не можете прикреплять файлы к сообщениям
Вы не можете скачивать файлы

Сайт не предоставляет электронные версии произведений, а занимается лишь коллекционированием и каталогизацией ссылок, присылаемых и публикуемых на форуме нашими читателями. Если вы являетесь правообладателем какого-либо представленного материала и не желаете, чтобы ссылка на него находилась в нашем каталоге, свяжитесь с нами, и мы незамедлительно удалим ее. Файлы для обмена на трекере предоставлены пользователями сайта, и администрация не несет ответственности за их содержание. Просьба не заливать файлы, защищенные авторскими правами, а также файлы нелегального содержания!