+100


 

[Цитировать]

Король Лев в 3Д / The Lion King 3D
Год выпуска: 1994, 3D in 2011
Страна: США (Walt Disney Pictures)
Жанр: Мультфильм, Мюзикл, Драма, Комедия, Семейный
Продолжительность: 01:28:49
Перевод:
Авторский (одноголосый, закадровый) [Александр Кашкин]
Авторский (одноголосый, закадровый) [Андрей Гаврилов - ранний/поздний]
Авторский (одноголосый, закадровый) [Сергей Визгунов]
Авторский (одноголосый, закадровый) [Сергей Кузнецов]
Авторский (одноголосый, закадровый) [Юрий Живов]
Авторский (одноголосый, закадровый) [Яковлев (Самарский)]
Профессиональный (двухголосый, закадровый) [Пётр Гланц и Татьяна Казаков]
Профессиональный (полное дублирование) [Невафильм]

Cубтитры: Русские, Английские
Режиссер: Роджер Аллерс, Роб Минкофф
Роли озвучивали:
Симба (взрослый) - Евгений Иванов / Мэттью Бродерик
Муфаса - Валерий Никитенко / Джеймс Эрл Джонс
Тимон - Сергей Дьячков, Сергей Савченко (вокал) / Натан Лейн
Пумба - Раф Кашапов, Андрей Шамин (вокал) / Эрни Сабелла
Нала (взрослая) - Татьяна Михалевкина / Мойра Келли
Шрам - Юрий Лазарев / Джереми Айронс
Зазу - Георгий Корольчук / Роуэн Эткинсон
Шензи - Татьяна Рассказова / Вупи Голдберг
Банзай - Валерий Захарьев / Чич Марин
Рафики - Игорь Шибанов / Роберт Гийом
Сараби - Александра Кожевникова / Мэдж Синклер

Описание: У величественного Короля-Льва Муфасы рождается наследник по имени Симба. Уже в детстве любознательный малыш становится жертвой интриг своего завистливого дяди Шрама, мечтающего о власти.
Симба познаёт горе утраты, предательство и изгнание, но в конце концов обретает верных друзей и находит любимую. Закалённый испытаниями, он в нелёгкой борьбе отвоёвывает своё законное место в «Круге жизни», осознав, что значит быть настоящим Королём.
- Top 250: 6

Инфо о качестве

Качество: BD-Rip 3D
Формат: mkv
Видео кодек: AVC
Аудио кодек: DTS, AC3
Видео: AVC, 1920x1080, ~6 463 Kbps, 23.976 fps
Аудио:
EN - DTS | 6 ch| 48 KHz | 640 kbps
EN - DTS | 6 ch| 48 KHz | 1510 kbps
RU - AC3 | 2 ch | 48 KHz | 224 kbps - [Александр Кашкин]
RU - DTS | 6 ch | 48 KHz | 1510 kbps - [Андрей Гаврилов - ранний]
RU - AC3 | 2 ch | 48 KHz | 224 kbps - [Андрей Гаврилов - поздний]
RU - AC3 | 2 ch | 48 KHz | 224 kbps - [Сергей Визгунов]
RU - AC3 | 2 ch | 48 KHz | 224 kbps - [Сергей Кузнецов]
RU - DTS | 6 ch | 48 KHz | 1510 kbps - [Юрий Живов]
RU - DTS | 6 ch | 48 KHz | 1510 kbps - [Яковлев (Самарский)]
RU - DTS | 6 ch | 48 KHz | 1510 kbps - [Пётр Гланц и Татьяна Казакова]
RU - AC3 | 6 ch | 48 KHz | 384 kbps - [Невафильм]
Субтитры
Английские (.srt)
Русские (.srt)
Русские (.srt) - Форсированные (песни)
Русские (.srt) - Комментарии Дона Хана, Роба Минкоффа и Роджера Аллерса

MediaInfo

General
Unique ID : 234857460066731134246898281575734607872 (0xB0AFE6C8BD06E541A1C0C0CE62C88000)
Complete name : C:\Users\Marat\Desktop\The Lion King 3D.mkv
Format : Matroska
Format version : Version 4 / Version 2
File size : 10.6 GiB
Duration : 1h 28mn
Overall bit rate : 17.1 Mbps
Movie name : The Lion King (3D)
Encoded date : UTC 2010-02-22 21:41:31
Writing application : mkvmerge v5.8.0 ('No Sleep / Pillow') built on Nov 13 2012 19:43:22
Writing library : libebml v1.3.0 + libmatroska v1.4.0
Video
ID : 1
Format : AVC
Format/Info : Advanced Video Codec
Format profile : High@L4.1
Format settings, CABAC : Yes
Format settings, ReFrames : 4 frames
Muxing mode : Header stripping
Codec ID : V_MPEG4/ISO/AVC
Duration : 1h 28mn
Bit rate : 6 463 Kbps
Width : 1 920 pixels
Height : 1 080 pixels
Display aspect ratio : 16:9
Frame rate mode : Constant
Frame rate : 23.976 fps
Color space : YUV
Chroma subsampling : 4:2:0
Bit depth : 8 bits
Scan type : Progressive
Bits/(Pixel*Frame) : 0.130
Stream size : 4.01 GiB (38%)
Title : The Lion king 3D
Writing library : x264 core 119 r2106 07efeb4
Encoding settings : cabac=1 / ref=4 / deblock=1:-3:-3 / analyse=0x3:0x113 / me=umh / subme=9 / psy=1 / psy_rd=1.00:0.15 / mixed_ref=1 / me_range=16 / chroma_me=1 / trellis=2 / 8x8dct=1 / cqm=0 / deadzone=21,11 / fast_pskip=1 / chroma_qp_offset=-3 / threads=3 / sliced_threads=0 / nr=0 / decimate=1 / interlaced=0 / bluray_compat=0 / constrained_intra=0 / bframes=6 / b_pyramid=2 / b_adapt=2 / b_bias=0 / direct=3 / weightb=1 / open_gop=0 / weightp=2 / keyint=250 / keyint_min=23 / scenecut=40 / intra_refresh=0 / rc_lookahead=60 / rc=crf / mbtree=1 / crf=17.0 / qcomp=0.70 / qpmin=0 / qpmax=69 / qpstep=4 / vbv_maxrate=40000 / vbv_bufsize=40000 / crf_max=0.0 / nal_hrd=none / frame-packing=4 / ip_ratio=1.40 / aq=1:0.70
Language : English
Default : Yes
Forced : No
Audio #1
ID : 2
Format : DTS
Format/Info : Digital Theater Systems
Mode : 16
Format settings, Endianness : Big
Muxing mode : Header stripping
Codec ID : A_DTS
Duration : 1h 28mn
Bit rate mode : Constant
Bit rate : 1 509 Kbps
Channel count : 6 channels
Channel positions : Front: L C R, Side: L R, LFE
Sampling rate : 48.0 KHz
Bit depth : 24 bits
Compression mode : Lossy
Delay relative to video : 11ms
Stream size : 959 MiB (9%)
Language : English
Default : No
Forced : No
Audio #2
ID : 3
Format : DTS
Format/Info : Digital Theater Systems
Mode : 16
Format settings, Endianness : Big
Muxing mode : Header stripping
Codec ID : A_DTS
Duration : 1h 28mn
Bit rate mode : Constant
Bit rate : 1 509 Kbps
Channel count : 6 channels
Channel positions : Front: L C R, Side: L R, LFE
Sampling rate : 48.0 KHz
Bit depth : 24 bits
Compression mode : Lossy
Stream size : 959 MiB (9%)
Default : No
Forced : No
Audio #3
ID : 4
Format : DTS
Format/Info : Digital Theater Systems
Mode : 16
Format settings, Endianness : Big
Muxing mode : Header stripping
Codec ID : A_DTS
Duration : 1h 28mn
Bit rate mode : Constant
Bit rate : 1 509 Kbps
Channel count : 6 channels
Channel positions : Front: L C R, Side: L R, LFE
Sampling rate : 48.0 KHz
Bit depth : 24 bits
Compression mode : Lossy
Stream size : 959 MiB (9%)
Default : No
Forced : No
Audio #4
ID : 5
Format : DTS
Format/Info : Digital Theater Systems
Mode : 16
Format settings, Endianness : Big
Muxing mode : Header stripping
Codec ID : A_DTS
Duration : 1h 28mn
Bit rate mode : Constant
Bit rate : 1 509 Kbps
Channel count : 6 channels
Channel positions : Front: L C R, Side: L R, LFE
Sampling rate : 48.0 KHz
Bit depth : 24 bits
Compression mode : Lossy
Stream size : 959 MiB (9%)
Default : No
Forced : No
Audio #5
ID : 6
Format : DTS
Format/Info : Digital Theater Systems
Mode : 16
Format settings, Endianness : Big
Muxing mode : Header stripping
Codec ID : A_DTS
Duration : 1h 28mn
Bit rate mode : Constant
Bit rate : 1 509 Kbps
Channel count : 6 channels
Channel positions : Front: L C R, Side: L R, LFE
Sampling rate : 48.0 KHz
Bit depth : 24 bits
Compression mode : Lossy
Stream size : 959 MiB (9%)
Default : No
Forced : No
Audio #6
ID : 7
Format : AC-3
Format/Info : Audio Coding 3
Mode extension : CM (complete main)
Format settings, Endianness : Big
Muxing mode : Header stripping
Codec ID : A_AC3
Duration : 1h 28mn
Bit rate mode : Constant
Bit rate : 640 Kbps
Channel count : 6 channels
Channel positions : Front: L C R, Side: L R, LFE
Sampling rate : 48.0 KHz
Bit depth : 16 bits
Compression mode : Lossy
Stream size : 407 MiB (4%)
Title : Original
Language : English
Default : No
Forced : No
Audio #7
ID : 8
Format : AC-3
Format/Info : Audio Coding 3
Mode extension : CM (complete main)
Format settings, Endianness : Big
Muxing mode : Header stripping
Codec ID : A_AC3
Duration : 1h 28mn
Bit rate mode : Constant
Bit rate : 640 Kbps
Channel count : 6 channels
Channel positions : Front: L C R, Side: L R, LFE
Sampling rate : 48.0 KHz
Bit depth : 16 bits
Compression mode : Lossy
Stream size : 407 MiB (4%)
Title : Дубляж
Language : Russian
Default : Yes
Forced : No
Audio #8
ID : 9
Format : AC-3
Format/Info : Audio Coding 3
Mode extension : CM (complete main)
Format settings, Endianness : Big
Muxing mode : Header stripping
Codec ID : A_AC3
Duration : 1h 28mn
Bit rate mode : Constant
Bit rate : 384 Kbps
Channel count : 6 channels
Channel positions : Front: L C R, Side: L R, LFE
Sampling rate : 48.0 KHz
Bit depth : 16 bits
Compression mode : Lossy
Stream size : 244 MiB (2%)
Title : Невафильм
Language : Russian
Default : No
Forced : No
Audio #9
ID : 10
Format : AC-3
Format/Info : Audio Coding 3
Mode extension : CM (complete main)
Format settings, Endianness : Big
Muxing mode : Header stripping
Codec ID : A_AC3
Duration : 1h 28mn
Bit rate mode : Constant
Bit rate : 192 Kbps
Channel count : 2 channels
Channel positions : Front: L R
Sampling rate : 48.0 KHz
Bit depth : 16 bits
Compression mode : Lossy
Stream size : 122 MiB (1%)
Title : Комментарии Дона Хана, Роба Минкоффа и Роджера Аллерса
Language : English
Default : No
Forced : No
Audio #10
ID : 11
Format : AC-3
Format/Info : Audio Coding 3
Mode extension : CM (complete main)
Format settings, Endianness : Big
Muxing mode : Header stripping
Codec ID : A_AC3
Duration : 1h 28mn
Bit rate mode : Constant
Bit rate : 224 Kbps
Channel count : 2 channels
Channel positions : Front: L R
Sampling rate : 48.0 KHz
Bit depth : 16 bits
Compression mode : Lossy
Stream size : 142 MiB (1%)
Title : Кашкин
Default : No
Forced : No
Audio #11
ID : 12
Format : AC-3
Format/Info : Audio Coding 3
Mode extension : CM (complete main)
Format settings, Endianness : Big
Muxing mode : Header stripping
Codec ID : A_AC3
Duration : 1h 28mn
Bit rate mode : Constant
Bit rate : 224 Kbps
Channel count : 2 channels
Channel positions : Front: L R
Sampling rate : 48.0 KHz
Bit depth : 16 bits
Compression mode : Lossy
Stream size : 142 MiB (1%)
Title : Гаврилов
Default : No
Forced : No
Audio #12
ID : 13
Format : AC-3
Format/Info : Audio Coding 3
Mode extension : CM (complete main)
Format settings, Endianness : Big
Muxing mode : Header stripping
Codec ID : A_AC3
Duration : 1h 28mn
Bit rate mode : Constant
Bit rate : 224 Kbps
Channel count : 2 channels
Channel positions : Front: L R
Sampling rate : 48.0 KHz
Bit depth : 16 bits
Compression mode : Lossy
Stream size : 142 MiB (1%)
Title : Визгунов
Default : No
Forced : No
Audio #13
ID : 14
Format : AC-3
Format/Info : Audio Coding 3
Mode extension : CM (complete main)
Format settings, Endianness : Big
Muxing mode : Header stripping
Codec ID : A_AC3
Duration : 1h 28mn
Bit rate mode : Constant
Bit rate : 224 Kbps
Channel count : 2 channels
Channel positions : Front: L R
Sampling rate : 48.0 KHz
Bit depth : 16 bits
Compression mode : Lossy
Stream size : 142 MiB (1%)
Title : Кузнецов
Default : No
Forced : No
Text #1
ID : 15
Format : UTF-8
Codec ID : S_TEXT/UTF8
Codec ID/Info : UTF-8 Plain Text
Language : English
Default : No
Forced : No
Text #2
ID : 16
Format : UTF-8
Codec ID : S_TEXT/UTF8
Codec ID/Info : UTF-8 Plain Text
Language : Russian
Default : No
Forced : No
Text #3
ID : 17
Format : UTF-8
Codec ID : S_TEXT/UTF8
Codec ID/Info : UTF-8 Plain Text
Title : Форсированные (песни)
Language : Russian
Default : No
Forced : No
Text #4
ID : 18
Format : UTF-8
Codec ID : S_TEXT/UTF8
Codec ID/Info : UTF-8 Plain Text
Title : Комментарии Дона Хана, Роба Минкоффа и Роджера Аллерса
Language : Russian
Default : No
Forced : No
Menu
00:00:00.000 : en:1. Circle of Life
00:05:00.592 : en:2. Scar
00:08:30.927 : en:3. Father and Son/"Morning Report"
00:11:49.500 : en:4. Uncle Scar
00:14:30.078 : en:5. "I Just Can't Wait to be King"
00:18:11.549 : en:6. Elephant Graveyard
00:23:15.269 : en:7. Under the Stars
00:25:56.638 : en:8. "Be Prepared"
00:30:44.718 : en:9. Stampede
00:36:12.670 : en:10. The King is Dead
00:40:34.599 : en:11. Scar Takes Over
00:41:34.951 : en:12. Timon and Pumbaa
00:44:37.466 : en:13. "Hakuna Matata"
00:48:41.085 : en:14. Scar in Command
00:50:27.733 : en:15. Pumbaa and Timon Wax Philosophical
00:53:35.295 : en:16. Nala and Simba Reunite
00:58:11.363 : en:17. "Can You Feel the Love Tonight"
01:01:17.090 : en:18. Trouble in Paradise
01:02:52.852 : en:19. He Lives in You
01:09:10.146 : en:20. Simba Returns
01:13:01.544 : en:21. Simba Confronts Scar
01:17:02.827 : en:22. The Fight
01:21:05.652 : en:23. Simba Ascends
01:23:44.394 : en:24. End Credits

Скриншоты





Показать сообщения:    

Текущее время: 07-Дек 06:48

Часовой пояс: UTC + 11


Вы не можете начинать темы
Вы не можете отвечать на сообщения
Вы не можете редактировать свои сообщения
Вы не можете удалять свои сообщения
Вы не можете голосовать в опросах
Вы не можете прикреплять файлы к сообщениям
Вы не можете скачивать файлы

Сайт не предоставляет электронные версии произведений, а занимается лишь коллекционированием и каталогизацией ссылок, присылаемых и публикуемых на форуме нашими читателями. Если вы являетесь правообладателем какого-либо представленного материала и не желаете, чтобы ссылка на него находилась в нашем каталоге, свяжитесь с нами, и мы незамедлительно удалим ее. Файлы для обмена на трекере предоставлены пользователями сайта, и администрация не несет ответственности за их содержание. Просьба не заливать файлы, защищенные авторскими правами, а также файлы нелегального содержания!