+100


 

[Цитировать]

-Молодо-зелено (1962) DVD5-Русское название: Молодо-зелено
Год выпуска: 1962
Жанр: Драма
Описание фильма: Чтобы обеспечить стройку необходимым материалом, Николай собирает бригаду и помогает инженеру-изобpетателю реализовать проект. Там, в Джегоре, он встречает выпускницу архитектурного института Ирину Ильину… Но не только стройкой жив человек. Бабушкин встретил здесь свою любовь. На фоне производственных перипетий в фильме развивается романтическая история любви героя
Режиссер: Константин Воинов
Актеры: Олег Табаков, Ада Шереметьева, Иван Переверзев, Юрий Никулин, Евгений Евстигнеев, Владимир Земляникин, Людмила Крылова, Михаил Ульянов, Вадим Грачев, Петр Любешкин
Продолжительность: 01:30:47

Видеокодек: MPEG-2
Битрейт видео: ~5041 Кбит/сек
Размер кадра: 720х576@785x576
Качество видео: DVD5
Аудиокодек: AC-3, 2 ch: Front: L R
Битрейт аудио: 384 Кбит/сек

MI

Общее
Полное имя                       : D:\Релизы\MOLODO_ZELENO\VIDEO_TS\VTS_01_1.VOB
Формат                           : MPEG-PS
Размер файла                     : 1024 Мбайт
Продолжительность                : 25 м.
Режим общего битрейта            : Переменный
Общий поток                      : 5536 Кбит/сек
Видео
Идентификатор                    : 224 (0xE0)
Формат                           : MPEG Video
Версия формата                   : Version 2
Профиль формата                  : Main@Main
Параметр BVOP формата            : Да
Параметр матрицы формата         : Выборочная
Параметр GOP формата             : M=3, N=12
Продолжительность                : 25 м.
Вид битрейта                     : Переменный
Битрейт                          : 5041 Кбит/сек
Максимальный битрейт             : 9000 Кбит/сек
Ширина                           : 720 пикселей
Высота                           : 576 пикселей
Соотношение сторон               : 4:3
Частота кадров                   : 25,000 кадров/сек
Стандарт вещания                 : PAL
Цветовое пространство            : YUV
Субдискретизация насыщенности    : 4:2:0
Битовая глубина                  : 8 бит
Тип развёртки                    : Чересстрочная
Порядок развёртки                : Верхнее поле первое
Метод сжатия                     : С потерями
Бит/(Пиксели*Кадры)              : 0.486
Размер потока                    : 933 Мбайт (91%)
Аудио
Идентификатор                    : 189 (0xBD)-128 (0x80)
Формат                           : AC-3
Формат/Информация                : Audio Coding 3
Расширение режима                : CM (complete main)
Режим смешивания                 : DVD-Video
Продолжительность                : 25 м.
Вид битрейта                     : Постоянный
Битрейт                          : 384 Кбит/сек
Каналы                           : 2 канала
Расположение каналов             : Front: L R
Частота                          : 48,0 КГц
Битовая глубина                  : 16 бит
Метод сжатия                     : С потерями
Задержка видео                   : -80 мс.
Размер потока                    : 71,0 Мбайт (7%)
Меню
Скриншоты:




Показать сообщения:    

Текущее время: 21-Июн 19:08

Часовой пояс: UTC + 11


Вы не можете начинать темы
Вы не можете отвечать на сообщения
Вы не можете редактировать свои сообщения
Вы не можете удалять свои сообщения
Вы не можете голосовать в опросах
Вы не можете прикреплять файлы к сообщениям
Вы не можете скачивать файлы

Сайт не предоставляет электронные версии произведений, а занимается лишь коллекционированием и каталогизацией ссылок, присылаемых и публикуемых на форуме нашими читателями. Если вы являетесь правообладателем какого-либо представленного материала и не желаете, чтобы ссылка на него находилась в нашем каталоге, свяжитесь с нами, и мы незамедлительно удалим ее. Файлы для обмена на трекере предоставлены пользователями сайта, и администрация не несет ответственности за их содержание. Просьба не заливать файлы, защищенные авторскими правами, а также файлы нелегального содержания!