+100


 

[Цитировать]

Телеведущий: И снова здравствуйте / Anchorman 2: The Legend Continues
«It's Kind of a Big Deal»
Год выпуска: 2013
Страна: США
Жанр: комедия
Продолжительность: 01:53:12
Перевод: Профессиональный (дублированный)[лицензия]
Режиссер: Адам МакКей
В ролях: Уилл Феррелл (Will Ferrell), Стив Карелл (Steve Carell), Пол Радд (Paul Rudd), Дэвид Кокнер (David Koechner), Кристина Эпплгейт (Christina Applegate), Дилан Бейкер (Dylan Baker), Миган Гуд (Meagan Good), Джуда Нельсон (Judah Nelson)
Описание: Популярнейший телеведущий Сан-Диего 70-х годов, Рон Бургунди, возвращается, чтобы стать лучшим на первом 24-часовом новостном канале Нью-Йорка…
Бюджет: $50 000 000
Сборы в США: $127 352 707
Сборы в мире: + $45 600 000 = $172 952 707
Рейтинг MPAA:

Качество: HDRip
Формат: AVI
Видео кодек: XviD
Аудио кодек: AC3
Видео: 720x304 (2.35:1), 23.976 fps, XviD, 1 852 Kbps
Аудио #1: Rus AC3, 448 Kbps, 48.0 KHz, 6 ch
Аудио #2: Eng AC3, 448 Kbps, 48.0 KHz, 6 ch

MediaInfo

General
Complete name : Anchorman.2.2013.D.HDRip.avi
Format : AVI
Format/Info : Audio Video Interleave
Format profile : OpenDML
File size : 2.18 GiB
Duration : 1h 52mn
Overall bit rate : 2 766 Kbps
Writing application : VirtualDubMod 1.5.10.2 (build 2540/release)
Writing library : VirtualDubMod build 2540/release
Video
ID : 0
Format : MPEG-4 Visual
Format profile : Advanced Simple@L5
Format settings, BVOP : Yes
Format settings, QPel : No
Format settings, GMC : No warppoints
Format settings, Matrix : Custom
Codec ID : XVID
Codec ID/Hint : XviD
Duration : 1h 52mn
Bit rate : 1 852 Kbps
Width : 720 pixels
Height : 304 pixels
Display aspect ratio : 2.35:1
Frame rate : 23.976 fps
Color space : YUV
Chroma subsampling : 4:2:0
Bit depth : 8 bits
Scan type : Progressive
Bits/(Pixel*Frame) : 0.353
Stream size : 1.46 GiB (67%)
Writing library : XviD 1.2.1 (UTC 2008-12-04)
Audio #1
ID : 1
Format : AC-3
Format/Info : Audio Coding 3
Mode extension : CM (complete main)
Codec ID : 2000
Duration : 1h 52mn
Bit rate mode : Constant
Bit rate : 448 Kbps
Channel(s) : 6 channels
Channel positions : Front: L C R, Side: L R, LFE
Sampling rate : 48.0 KHz
Bit depth : 16 bits
Stream size : 362 MiB (16%)
Alignment : Split accross interleaves
Interleave, duration : 42 ms (1.00 video frame)
Interleave, preload duration : 500 ms
Audio #2
ID : 2
Format : AC-3
Format/Info : Audio Coding 3
Mode extension : CM (complete main)
Codec ID : 2000
Duration : 1h 52mn
Bit rate mode : Constant
Bit rate : 448 Kbps
Channel(s) : 6 channels
Channel positions : Front: L C R, Side: L R, LFE
Sampling rate : 48.0 KHz
Bit depth : 16 bits
Stream size : 362 MiB (16%)
Alignment : Split accross interleaves
Interleave, duration : 42 ms (1.00 video frame)
Interleave, preload duration : 500 ms

Скриншоты





Показать сообщения:    

Текущее время: 04-Дек 10:50

Часовой пояс: UTC + 11


Вы не можете начинать темы
Вы не можете отвечать на сообщения
Вы не можете редактировать свои сообщения
Вы не можете удалять свои сообщения
Вы не можете голосовать в опросах
Вы не можете прикреплять файлы к сообщениям
Вы не можете скачивать файлы

Сайт не предоставляет электронные версии произведений, а занимается лишь коллекционированием и каталогизацией ссылок, присылаемых и публикуемых на форуме нашими читателями. Если вы являетесь правообладателем какого-либо представленного материала и не желаете, чтобы ссылка на него находилась в нашем каталоге, свяжитесь с нами, и мы незамедлительно удалим ее. Файлы для обмена на трекере предоставлены пользователями сайта, и администрация не несет ответственности за их содержание. Просьба не заливать файлы, защищенные авторскими правами, а также файлы нелегального содержания!