+100


 

[Цитировать]

В бегах / Ain't Them Bodies Saints-
Год выпуска: 2013
Страна: США
Жанр: драма, мелодрама, криминал, вестерн
Продолжительность: 01:36:00
Перевод: Профессиональное (многоголосое) [лицензия]
Режиссер: Дэвид Лоури
Сценарий: Дэвид Лоури
Продюсер: Кассиан Элвис, Тоби Хальбрукс, Джеймс М. Джонстон
Оператор: Брэдфорд Янг
Композитор: Дэниэл Харт
Художник: Джейд Хили, Малгозия Турзанска, Адам Уиллис
Монтаж: Крэйг МакКэй, Джейн Риццо
В ролях: Кейси Аффлек / Casey Affleck (Bob Muldoon), Руни Мара / Rooney Mara (Ruth Guthrie), Бен Фостер / Ben Foster (Patrick Wheeler), Кит Кэрредин / Keith Carradine (Skerritt), Кеннади Смит / Kennadie Smith (Sylvie Guthrie), Джеклинн Смит / Jacklynn Smith (Sylvie Guthrie), Нэйт Паркер / Nate Parker (Sweetie), Роберт Лонгстрит / Robert Longstreet (Cowboy Hat)

Описание: Техас, 1970-е годы. Попав в засаду, трое молодых преступников тяжело ранят одного из окруживших их полицейских. Главарь банды Боб Малдун берет всю вину на себя, хотя роковой выстрел сделала его девушка Рут, и отправляется за решетку на много лет. Уже в тюрьме он узнает, что у него родилась дочь Сильвия. Чтобы увидеть девочку Боб совершает побег за побегом, но вырваться на свободу ему удается только через четыре долгих года. Его следы ведут в противоположном от родных мест направлении, однако техасская полиция (и прежде всего Патрик Смоллс — офицер, раненный в той давней перестрелке) считает, что появиться беглец может только там, где находится маленькая Сильвия. Все готово к охоте на Малдуна, но, оказывается, что не только служители закона хотят заставить Боба сполна заплатить по давним счетам.
Сборы в США:
Сборы в мире: + $484 322 = $880 841 сборы
Зрители: Турция 1.1 тыс.

Премьера (мир): 20 января 2013
Релиз на DVD: 24 апреля 2014 «Вольга»
Рейтинг MPAA: Лицам до 17 лет обязательно присутствие взрослого-- --Качество: HDRip
Формат: AVI
Видео кодек: XviD
Аудио кодеk: AC3
Видео: 720x304 (2.35:1), 23.976 fps, XviD, 1 791 Kbps
Аудио: Аудио #1: AC3, 384 Kbps, 48.0 KHz, 6 ch

медиаинфо

General
Complete name : V.begax.2013.P.HDRip.1400Mb.avi
Format : AVI
Format/Info : Audio Video Interleave
File size : 1.46 GiB
Duration : 1h 36mn
Overall bit rate : 2 184 Kbps
Writing application : VirtualDubMod 1.5.10.2 (build 2540/release)
Writing library : VirtualDubMod build 2540/release
Video
ID : 0
Format : MPEG-4 Visual
Format profile : Advanced Simple@L5
Format settings, BVOP : Yes
Format settings, QPel : No
Format settings, GMC : No warppoints
Format settings, Matrix : Default (MPEG)
Codec ID : XVID
Codec ID/Hint : XviD
Duration : 1h 36mn
Bit rate : 1 791 Kbps
Width : 720 pixels
Height : 304 pixels
Display aspect ratio : 2.35:1
Frame rate : 23.976 fps
Color space : YUV
Chroma subsampling : 4:2:0
Bit depth : 8 bits
Scan type : Progressive
Bits/(Pixel*Frame) : 0.341
Stream size : 1.20 GiB (82%)
Writing library : XviD 1.2.1 (UTC 2008-12-04)
Audio
ID : 1
Format : AC-3
Format/Info : Audio Coding 3
Mode extension : CM (complete main)
Codec ID : 2000
Duration : 1h 36mn
Bit rate mode : Constant
Bit rate : 384 Kbps
Channel(s) : 6 channels
Channel positions : Front: L C R, Side: L R, LFE
Sampling rate : 48.0 KHz
Bit depth : 16 bits
Stream size : 264 MiB (18%)
Alignment : Split accross interleaves
Interleave, duration : 42 ms (1.00 video frame)
Interleave, preload duration : 500 ms

скриншоты





Показать сообщения:    

Текущее время: 04-Дек 10:49

Часовой пояс: UTC + 11


Вы не можете начинать темы
Вы не можете отвечать на сообщения
Вы не можете редактировать свои сообщения
Вы не можете удалять свои сообщения
Вы не можете голосовать в опросах
Вы не можете прикреплять файлы к сообщениям
Вы не можете скачивать файлы

Сайт не предоставляет электронные версии произведений, а занимается лишь коллекционированием и каталогизацией ссылок, присылаемых и публикуемых на форуме нашими читателями. Если вы являетесь правообладателем какого-либо представленного материала и не желаете, чтобы ссылка на него находилась в нашем каталоге, свяжитесь с нами, и мы незамедлительно удалим ее. Файлы для обмена на трекере предоставлены пользователями сайта, и администрация не несет ответственности за их содержание. Просьба не заливать файлы, защищенные авторскими правами, а также файлы нелегального содержания!