+100


 

[Цитировать]

Горько!«Главное не нажраться»-
Год выпуска: 2013
Страна: Россия
Жанр: комедия
Продолжительность: 01:40:43
Перевод: Оригинал [лицензия]
Примечание: Эксклюзивно! Исходник с непоступившего в продажу БД.
Режиссер: Жора Крыжовников
Сценарий: Алексей Казаков, Николай Куликов, Жора Крыжовников
Продюсер: Илья Бурец, Дмитрий Нелидов, Сергей Светлаков
Оператор: Дмитрий Грибанов
Художник: Елена Травкина, Варя Авдюшко, Николай Растимешин
Монтаж: Александр Верхоляк
В ролях: Сергей Светлаков (Светлаков), Юлия Александрова (Наташа), Егор Корешков (Рома), Ян Цапник (отчим Наташи), Елена Валюшкина (мама Наташи), Василий Кортуков (папа Ромы), Юлия Стадник (мама Ромы), Данила Якушев (Семен, начальник Наташи)

Описание: Прогрессивные и талантливые Наташа и Рома мечтают о европейской свадьбе на берегу моря… но у Наташиного отчима заготовлен другой сценарий. Грубый чиновник городской администрации рассматривает торжество как трамплин для собственной карьеры и стремится устроить все «как надо». Молодых ждет незабываемый вечер в ресторане «Золотой» с полным набором занудных обрядов. Не в силах бороться, ребята решают провести свадьбу своей мечты в секрете от консервативных родственников. Но по нелепой случайности оба торжества сливаются воедино.
Бюджет: $1 500 000
Сборы в России: $25 505 814
Зрители: Россия 3.7 млн , Украина 467.2 тыс. , Литва 26.5 тыс.
Премьера (мир): 24 октября 2013
Премьера (РФ): 24 октября 2013, «Bazelevs Distribution»
Релиз на DVD: 5 декабря 2013 «Флагман-Трейд»
Релиз на Blu-Ray: 23 января 2014 «Флагман-Трейд»-- --Качество: HDRip
Формат: AVI
Видео кодек: XviD
Аудио кодеk: AC3
Видео: 720x400 (16:9), 24.000 fps, XviD, 1 614 Kbps
Аудио: Аудио #1: AC3, 448 Kbps, 48.0 KHz, 6 ch

Знаете ли Вы, что...

· Брата Сергея Светлакова играет его родной старший брат Дмитрий.
· Начальная сцена интервью, где Рома и Наташа рассказывают о себе, была во многом сымпровизирована. В сценарии было только несколько фраз — «Я сначала думала, что он гей», «Я работаю в газовой отрасли, но я не газовик», остальное актёры придумали сами.
· Танец Валентины Мазуниной под «Одиночество — сволочь» был полностью сымпровизирован. Его не было в сценарии, но режиссёру так понравилась эта сцена, что он решил добавить её в окончательный вариант.
· Фильм был снят за 23 дня.
· Съемки проходили в Геленджике, Новороссийске и селе Дивноморском.
· Изначально Юлия Александрова не должна была сниматься в фильме. Для запуска проекта продюсеры попросили режиссера сделать пробу, чтобы понять, как будет выглядеть использованная в фильме съемка от первого лица. Юлия взялась ассистировать мужу, а когда готовую пробу увидел один из продюсеров фильма — Тимур Бекмамбетов, он сказал, что на роль Наташи больше не нужно никого искать.
· Актер Ян Цапник, как и его герой в фильме, служил в десантных войсках, именно поэтому актер быстро нашел общий язык с десантниками из новороссийской группы «Синева». В жизни актёр не носит усов, поэтому для роли ему приходилось наклеивать искусственные.
· Это третий фильм, в котором исполнителю главной роли — Егору Корешкову — пришлось исполнить роль жениха на свадьбе.
· Кинодебютом актрисы Елены Валюшкиной, сыгравшей в этом фильме маму невесты, стал фильм «Формула любви» (1984) Марка Захарова, в мастерской которого учился режиссер Жора Крыжовников.
· Настоящее имя режиссера Жоры Крыжовникова — Андрей Першин, и он женат на исполнительнице главной роли Юлии Александровой.
· Сцену, в которой на свадьбу врываются омоновцы, снимали с настоящими бойцами.
· После съемок финальной сцены, где героиня Юлии Александровой прыгает в море, актриса временно потеряла голос.

скриншоты

медиаинфо

General
Complete name : GORKO.O.HDRip.1.46Gb.avi
Format : AVI
Format/Info : Audio Video Interleave
File size : 1.46 GiB
Duration : 1h 40mn
Overall bit rate : 2 071 Kbps
Writing application : VirtualDubMod 1.5.10.2 (build 2540/release)
Writing library : VirtualDubMod build 2540/release
Video
ID : 0
Format : MPEG-4 Visual
Format profile : Advanced Simple@L5
Format settings, BVOP : Yes
Format settings, QPel : No
Format settings, GMC : No warppoints
Format settings, Matrix : Custom
Codec ID : XVID
Codec ID/Hint : XviD
Duration : 1h 40mn
Bit rate : 1 614 Kbps
Width : 720 pixels
Height : 400 pixels
Display aspect ratio : 16:9
Frame rate : 24.000 fps
Color space : YUV
Chroma subsampling : 4:2:0
Bit depth : 8 bits
Scan type : Progressive
Bits/(Pixel*Frame) : 0.233
Stream size : 1.14 GiB (78%)
Writing library : XviD 1.2.1 (UTC 2008-12-04)
Audio
ID : 1
Format : AC-3
Format/Info : Audio Coding 3
Mode extension : CM (complete main)
Codec ID : 2000
Duration : 1h 40mn
Bit rate mode : Constant
Bit rate : 448 Kbps
Channel(s) : 6 channels
Channel positions : Front: L C R, Side: L R, LFE
Sampling rate : 48.0 KHz
Bit depth : 16 bits
Stream size : 323 MiB (22%)
Alignment : Split accross interleaves
Interleave, duration : 42 ms (1.00 video frame)
Interleave, preload duration : 500 ms




Показать сообщения:    

Текущее время: 11-Дек 13:11

Часовой пояс: UTC + 11


Вы не можете начинать темы
Вы не можете отвечать на сообщения
Вы не можете редактировать свои сообщения
Вы не можете удалять свои сообщения
Вы не можете голосовать в опросах
Вы не можете прикреплять файлы к сообщениям
Вы не можете скачивать файлы

Сайт не предоставляет электронные версии произведений, а занимается лишь коллекционированием и каталогизацией ссылок, присылаемых и публикуемых на форуме нашими читателями. Если вы являетесь правообладателем какого-либо представленного материала и не желаете, чтобы ссылка на него находилась в нашем каталоге, свяжитесь с нами, и мы незамедлительно удалим ее. Файлы для обмена на трекере предоставлены пользователями сайта, и администрация не несет ответственности за их содержание. Просьба не заливать файлы, защищенные авторскими правами, а также файлы нелегального содержания!