+100


 

[Цитировать]

- Аисты / Storks (2016) BDRip 3D [H.264/1080p]-Производство: США
Жанр: мультфильм, фэнтези, комедия, приключения, семейный
Режиссер: Николас Столлер, Даг Свитлэнд
В Ролях: Энди Сэмберг, Кэти Краун, Келси Грэммер, Дженнифер Энистон, Тай Бурелл, Антон Старкман, Кигэн-Майкл Ки, Джордан Пил, Дэнни Трехо, Стив Гликман
Описание:
Аисты приносят детей… или, во всяком случае, раньше приносили. Теперь же они занимаются доставкой посылок для огромного сайта интернет-продаж. Джуниор, лучший аист в курьерской компании, должен пойти на повышение, но он случайно активирует машину для создания детей и получает очаровательную, но совершенно незапланированную девочку.
Пытаясь доставить эту «посылку» до того, как босс узнает о произошедшем, Джуниор и его подруга Лютик, единственный человек на Горе Аистов, решаются на свою первую доставку ребёнка и отправляются в безумное и насыщенное удивительными открытиями приключение, благодаря которому многие семьи могут стать полными, а аисты — вернуться к своей истинной миссии на Земле.

Возраст: 6+ (зрителям, достигшим 6 лет)
Рейтинг MPAA: PG (рекомендуется присутствие родителей)
Дата мировой премьеры: 22 сентября 2016
Дата российской премьеры: 22 сентября 2016, «Каро-Премьер»
Продолжительность: 01:26:56
Качество видео: BDRip
Перевод: Дублированный (iTunes)
Язык субтитров: Русские (форсированные, полные)
Вид субтитров: 3D Вшитые (отключаемые)
Видео: MPEG-4 AVC/H.264, 1920x808, 5688 Kbps
Аудио 1: AC3, 6 ch, 384 kbps | Русский
Аудио 2: AC3, 6 ch, 640 kbps | Английский

MediaInfo

Общее
Полное имя : \Аисты_Storks.2016.BDRip.3D.SBS.H.264.1080p.ru.en.NNMClub.mkv
Формат : Matroska
Версия формата : Version 2
Размер файла : 4,10 Гбайт
Продолжительность : 1 ч. 26 м.
Общий поток : 6752 Кбит/сек
Название фильма : Аисты_Storks.2016.BDRip.3D.SBS.H.264.1080p.ru.en.NNMClub
Дата кодирования : UTC 2016-12-13 06:48:06
Программа кодирования : mkvmerge v7.7.0 ('Six Voices') 64bit built on Feb 28 2015 23:39:33
Библиотека кодирования : libebml v1.3.1 + libmatroska v1.4.2
Видео
Идентификатор : 1
Формат : AVC
Формат/Информация : Advanced Video Codec
Профиль формата : High@L4.1
Параметр CABAC формата : Да
Параметр ReFrames формата : 5 кадров
Идентификатор кодека : V_MPEG4/ISO/AVC
Продолжительность : 1 ч. 26 м.
Битрейт : 5688 Кбит/сек
Ширина : 1920 пикселей
Высота : 808 пикселей
Соотношение сторон : 2,40:1
Режим частоты кадров : Постоянный
Частота кадров : 23,976 кадра/сек
Цветовое пространство : YUV
Субдискретизация насыщенности : 4:2:0
Битовая глубина : 8 бит
Тип развёртки : Прогрессивная
Бит/(Пиксели*Кадры) : 0.153
Размер потока : 3,40 Гбайт (83%)
Заголовок : Аисты_Storks.2016.BDRip.3D.SBS.H.264.1080p.ru.en.NNMClub
Библиотека кодирования : x264 core 148 r2705 3f5ed56
Настройки программы : cabac=1 / ref=5 / deblock=1:0:0 / analyse=0x3:0x133 / me=umh / subme=7 / psy=1 / psy_rd=1.00:0.00 / mixed_ref=1 / me_range=16 / chroma_me=1 / trellis=1 / 8x8dct=1 / cqm=0 / deadzone=21,11 / fast_pskip=0 / chroma_qp_offset=-2 / threads=24 / lookahead_threads=4 / sliced_threads=0 / nr=0 / decimate=1 / interlaced=0 / bluray_compat=0 / constrained_intra=0 / bframes=3 / b_pyramid=2 / b_adapt=1 / b_bias=0 / direct=1 / weightb=1 / open_gop=0 / weightp=2 / keyint=250 / keyint_min=23 / scenecut=40 / intra_refresh=0 / rc_lookahead=40 / rc=2pass / mbtree=1 / bitrate=5688 / ratetol=1.0 / qcomp=0.60 / qpmin=0 / qpmax=69 / qpstep=4 / cplxblur=20.0 / qblur=0.5 / ip_ratio=1.40 / aq=1:1.00
Язык : English
Default : Да
Forced : Нет
Аудио #1
Идентификатор : 2
Формат : AC-3
Формат/Информация : Audio Coding 3
Расширение режима : CM (complete main)
Параметр Endianness формата : Big
Идентификатор кодека : A_AC3
Продолжительность : 1 ч. 26 м.
Вид битрейта : Постоянный
Битрейт : 384 Кбит/сек
Каналы : 6 каналов
Расположение каналов : Front: L C R, Side: L R, LFE
Частота : 48,0 КГц
Частота кадров : 31,250 кадров/сек (1536 spf)
Битовая глубина : 16 бит
Метод сжатия : С потерями
Размер потока : 239 Мбайт (6%)
Заголовок : Дублированный (iTunes)
Язык : Russian
Default : Да
Forced : Нет
Аудио #2
Идентификатор : 3
Формат : AC-3
Формат/Информация : Audio Coding 3
Расширение режима : CM (complete main)
Параметр Endianness формата : Big
Идентификатор кодека : A_AC3
Продолжительность : 1 ч. 26 м.
Вид битрейта : Постоянный
Битрейт : 640 Кбит/сек
Каналы : 6 каналов
Расположение каналов : Front: L C R, Side: L R, LFE
Частота : 48,0 КГц
Частота кадров : 31,250 кадров/сек (1536 spf)
Битовая глубина : 16 бит
Метод сжатия : С потерями
Размер потока : 398 Мбайт (9%)
Язык : English
Default : Нет
Forced : Нет
Текст #1
Идентификатор : 4
Формат : PGS
Режим смешивания : zlib
Идентификатор кодека : S_HDMV/PGS
Идентификатор кодека/Информация : Picture based subtitle format used on BDs/HD-DVDs
Заголовок : Форс.
Язык : Russian
Default : Да
Forced : Нет
Текст #2
Идентификатор : 5
Формат : PGS
Режим смешивания : zlib
Идентификатор кодека : S_HDMV/PGS
Идентификатор кодека/Информация : Picture based subtitle format used on BDs/HD-DVDs
Заголовок : Полные
Язык : Russian
Default : Нет
Forced : Нет
Меню
00:00:00.000 : en:00:00:00.000
00:10:26.501 : en:00:10:26.501
00:20:35.734 : en:00:20:35.734
00:30:24.406 : en:00:30:24.406
00:39:30.034 : en:00:39:30.034
00:50:24.480 : en:00:50:24.480
00:59:24.436 : en:00:59:24.436
01:07:06.022 : en:01:07:06.022
01:14:28.297 : en:01:14:28.297
01:20:53.599 : en:01:20:53.599
Скриншоты:




Показать сообщения:    

Текущее время: 22-Ноя 16:37

Часовой пояс: UTC + 11


Вы не можете начинать темы
Вы не можете отвечать на сообщения
Вы не можете редактировать свои сообщения
Вы не можете удалять свои сообщения
Вы не можете голосовать в опросах
Вы не можете прикреплять файлы к сообщениям
Вы не можете скачивать файлы

Сайт не предоставляет электронные версии произведений, а занимается лишь коллекционированием и каталогизацией ссылок, присылаемых и публикуемых на форуме нашими читателями. Если вы являетесь правообладателем какого-либо представленного материала и не желаете, чтобы ссылка на него находилась в нашем каталоге, свяжитесь с нами, и мы незамедлительно удалим ее. Файлы для обмена на трекере предоставлены пользователями сайта, и администрация не несет ответственности за их содержание. Просьба не заливать файлы, защищенные авторскими правами, а также файлы нелегального содержания!