+100


 

[Цитировать]

-Космос: Пространство и время / Cosmos: A SpaceTime Odyssey (Сезон 1 (13 серий из 13)) (2014) BDRemux [1080p]-Телекомпания: National Geographic
Год выпуска: 2014
Страна: США
Жанр: Телепередача, Документальный
Описание:
Документальный сериал рассказывает о последних научных открытиях, которые были сделаны в области астронавтики, астрофизики и других наук. Сериал «Космос: Пространство и время» является продолжением научно-популярной серии фильмов «Космос: Персональное путешествие с Карлом Саганом» и отражает события последних трёх десятилетий. Астрофизик Нил Деграсс Тайсон с соавторами (среди которых вдова Сагана Энн Драйэн) расскажет об открытых законах мира космоса, о возможности межпланетных путешествий и наблюдении за космическими процессами. Все самые сложные понятия представлены с потрясающей чёткостью, в повествовании соединяются научная точность и эмоциональность. Трёхмерная компьютерная графика, уникальные съёмки и использование спецэффектов делают каждый эпизод захватывающим и необычным.

Продолжительность: ~ 00:43:00 серия
Качество видео: BDRemux
Перевод: Профессиональный одноголосый закадровый - Студия «Арк-ТВ»
Язык субтитров: Английский
Вид субтитров: Вшитые отключаемые
Видеокодек: MPEG-4 AVC/H.264
Битрейт видео: ~27700 - 34044 kps
Размер кадра: 1920x1080
Аудио 1: Dolby Digital Audio 2.0 / 192 kbps / 48 kHz / Русский одноголосый закадровый (Арк-ТВ)
Аудио 2: DTS-HD MA 5.1 / ~ 4000 kbps / 48 kHz / Английский
Аудио 3: Dolby Digital Audio 2.0 / 224 kbps / 48 kHz / Английский (Комментарий)

Список серий

01. Standing Up in the Milky Way / Стоя на Млечном Пути
02. Some of the Things That Molecules Do / Молекула
03. When Knowledge Conquered Fear / Когда знание победило страх
04. A Sky Full of Ghosts / Небо полное призраков
05. Hiding in the Light / Спрятаться на свету
06. Deeper, Deeper, Deeper Still / Всё глубже и глубже
07. The Clean Room / Возраст Земли
08. Sisters of the Sun / Сёстры Солнца
09. The Lost Worlds of Planet Earth / Затерянные миры планеты Земля
10. The Electric Boy / Электрический мальчик
11. The Immortals / Бессмертные
12. The World Set Free / Освобождённый мир
13. Unafraid of the Dark / Нестрашная темнота

MediaInfo

Disc Title: Cosmos.A.Spacetime.Odyssey.2014.S01E01.BluRay.Remux.1080p.Rus.Eng.HDCLUB
Disc Size: 11 786 247 212 bytes
Protection: AACS
BD-Java: No
BDInfo: 0.5.8
Notes:
BDINFO HOME:
Cinema Squid
http://www.cinemasquid.com/blu-ray/tools/bdinfo
INCLUDES FORUMS REPORT FOR:
AVS Forum Blu-ray Audio and Video Specifications Thread
http://www.avsforum.com/avs-vb/showthread.php?t=1155731
********************
PLAYLIST: 00000.MPLS
********************
Total   Video
Title                                                           Codec   Length  Movie Size      Disc Size       Bitrate Bitrate Main Audio Track                          Secondary Audio Track
-----                                                           ------  ------- --------------  --------------  ------- ------- ------------------                        ---------------------
00000.MPLS                                                      AVC     0:46:03 11 786 207 232  11 786 247 212  34,12   27,74   DD AC3 2.0 192Kbps
DISC INFO:
Disc Title:     Cosmos.A.Spacetime.Odyssey.2014.S01E01.BluRay.Remux.1080p.Rus.Eng.HDCLUB
Disc Size:      11 786 247 212 bytes
Protection:     AACS
BD-Java:        No
BDInfo:         0.5.8
PLAYLIST REPORT:
Name:                   00000.MPLS
Length:                 0:46:03.177 (h:m:s.ms)
Size:                   11 786 207 232 bytes
Total Bitrate:          34,12 Mbps
VIDEO:
Codec                   Bitrate             Description
-----                   -------             -----------
MPEG-4 AVC Video        27737 kbps          1080p / 23,976 fps / 16:9 / High Profile 4.1
AUDIO:
Codec                           Language        Bitrate         Description
-----                           --------        -------         -----------
Dolby Digital Audio             Russian         192 kbps        2.0 / 48 kHz / 192 kbps / DN -4dB
DTS-HD Master Audio             English         4087 kbps       5.1 / 48 kHz / 4087 kbps / 24-bit (DTS Core: 5.1 / 48 kHz / 1509 kbps / 24-bit)
Dolby Digital Audio             English         224 kbps        2.0 / 48 kHz / 224 kbps
SUBTITLES:
Codec                           Language        Bitrate         Description
-----                           --------        -------         -----------
Presentation Graphics           English         42,765 kbps
Presentation Graphics           English         66,299 kbps
FILES:
Name            Time In         Length          Size            Total Bitrate
----            -------         ------          ----            -------------
00000.M2TS      0:00:00.000     0:46:03.177     11 786 207 232  34 124
CHAPTERS:
Number          Time In         Length          Avg Video Rate  Max 1-Sec Rate  Max 1-Sec Time  Max 5-Sec Rate  Max 5-Sec Time  Max 10Sec Rate  Max 10Sec Time  Avg Frame Size  Max Frame Size  Max Frame Time
------          -------         ------          --------------  --------------  --------------  --------------  --------------  --------------  --------------  --------------  --------------  --------------
1               0:00:00.000     0:03:49.353     24 829 kbps     38 506 kbps     00:01:05.231    36 892 kbps     00:00:10.844    36 706 kbps     00:01:37.013    129 421 bytes   491 841 bytes   00:00:28.611
2               0:03:49.353     0:06:47.491     30 478 kbps     40 691 kbps     00:09:25.356    37 102 kbps     00:04:42.699    36 670 kbps     00:09:43.541    158 900 bytes   607 690 bytes   00:05:14.605
3               0:10:36.844     0:02:11.506     29 893 kbps     38 926 kbps     00:12:45.222    37 143 kbps     00:12:41.218    36 767 kbps     00:12:06.392    155 849 bytes   638 501 bytes   00:11:27.645
4               0:12:48.350     0:03:49.269     27 609 kbps     39 162 kbps     00:13:02.198    37 190 kbps     00:12:58.194    36 953 kbps     00:12:53.189    143 941 bytes   578 481 bytes   00:15:03.652
5               0:16:37.619     0:02:48.085     28 531 kbps     38 740 kbps     00:18:49.628    36 972 kbps     00:18:53.048    36 724 kbps     00:18:51.088    148 746 bytes   533 121 bytes   00:16:44.294
6               0:19:25.705     0:03:38.092     29 934 kbps     39 195 kbps     00:21:19.486    37 053 kbps     00:19:38.093    36 384 kbps     00:20:20.427    156 065 bytes   445 252 bytes   00:19:42.472
7               0:23:03.797     0:04:49.289     28 704 kbps     40 813 kbps     00:27:27.645    36 985 kbps     00:23:04.966    36 916 kbps     00:27:38.406    149 647 bytes   541 280 bytes   00:23:08.804
8               0:27:53.087     0:03:28.958     29 347 kbps     42 229 kbps     00:30:12.769    37 655 kbps     00:30:08.806    37 234 kbps     00:30:03.885    153 003 bytes   527 367 bytes   00:31:05.697
9               0:31:22.046     0:05:11.351     30 445 kbps     40 545 kbps     00:35:30.044    37 330 kbps     00:34:29.150    37 000 kbps     00:34:24.145    158 728 bytes   640 078 bytes   00:34:50.838
10              0:36:33.398     0:03:41.430     29 382 kbps     42 123 kbps     00:38:22.049    37 682 kbps     00:38:18.045    36 943 kbps     00:38:51.912    153 183 bytes   612 689 bytes   00:37:58.651
11              0:40:14.828     0:03:08.102     32 092 kbps     39 190 kbps     00:43:11.422    37 333 kbps     00:43:07.459    36 926 kbps     00:42:21.872    167 311 bytes   488 706 bytes   00:42:20.913
12              0:43:22.931     0:02:40.245     3 025 kbps      27 413 kbps     00:45:57.963    14 742 kbps     00:45:54.084    8 621 kbps      00:45:49.037    15 778 bytes    446 806 bytes   00:45:48.078
STREAM DIAGNOSTICS:
File            PID             Type            Codec           Language                Seconds                 Bitrate                 Bytes           Packets
----            ---             ----            -----           --------                --------------          --------------          -------------   -----
00000.M2TS      4113 (0x1011)   0x1B            AVC                                     2763,010                27 739                  9 580 220 828   52 104 907
00000.M2TS      4352 (0x1100)   0x81            AC3             rus (Russian)           2763,010                192                     66 316 032      431 745
00000.M2TS      4353 (0x1101)   0x86            DTS-HD MA       eng (English)           2763,010                4 087                   1 411 520 992   8 102 445
00000.M2TS      4354 (0x1102)   0x81            AC3             eng (English)           2763,010                224                     77 369 600      431 750
00000.M2TS      4608 (0x1200)   0x90            PGS             eng (English)           2763,010                43                      14 770 813      83 835
00000.M2TS      4609 (0x1201)   0x90            PGS             eng (English)           2763,010                66                      22 899 424      129 422
QUICK SUMMARY:
Disc Title: Cosmos.A.Spacetime.Odyssey.2014.S01E01.BluRay.Remux.1080p.Rus.Eng.HDCLUB
Disc Size: 11 786 247 212 bytes
Protection: AACS
BD-Java: No
Playlist: 00000.MPLS
Size: 11 786 207 232 bytes
Length: 0:46:03.177
Total Bitrate: 34,12 Mbps
Video: MPEG-4 AVC Video / 27737 kbps / 1080p / 23,976 fps / 16:9 / High Profile 4.1
Audio: Russian / Dolby Digital Audio / 2.0 / 48 kHz / 192 kbps / DN -4dB
Audio: English / DTS-HD Master Audio / 5.1 / 48 kHz / 4087 kbps / 24-bit (DTS Core: 5.1 / 48 kHz / 1509 kbps / 24-bit)
Audio: English / Dolby Digital Audio / 2.0 / 48 kHz / 224 kbps
Subtitle: English / 42,765 kbps
Subtitle: English / 66,299 kbps Disc Title: Cosmos.A.Spacetime.Odyssey.2014.S01E02.BluRay.Remux.1080p.Rus.Eng.HDCLUB
Disc Size: 11 423 221 836 bytes
Protection: AACS
BD-Java: No
BDInfo: 0.5.8
Notes:
BDINFO HOME:
Cinema Squid
http://www.cinemasquid.com/blu-ray/tools/bdinfo
INCLUDES FORUMS REPORT FOR:
AVS Forum Blu-ray Audio and Video Specifications Thread
http://www.avsforum.com/avs-vb/showthread.php?t=1155731
********************
PLAYLIST: 00000.MPLS
********************
Total   Video
Title                                                           Codec   Length  Movie Size      Disc Size       Bitrate Bitrate Main Audio Track                          Secondary Audio Track
-----                                                           ------  ------- --------------  --------------  ------- ------- ------------------                        ---------------------
00000.MPLS                                                      AVC     0:45:14 11 423 182 848  11 423 221 836  33,66   27,75   DD AC3 2.0 192Kbps
DISC INFO:
Disc Title:     Cosmos.A.Spacetime.Odyssey.2014.S01E02.BluRay.Remux.1080p.Rus.Eng.HDCLUB
Disc Size:      11 423 221 836 bytes
Protection:     AACS
BD-Java:        No
BDInfo:         0.5.8
PLAYLIST REPORT:
Name:                   00000.MPLS
Length:                 0:45:14.586 (h:m:s.ms)
Size:                   11 423 182 848 bytes
Total Bitrate:          33,66 Mbps
VIDEO:
Codec                   Bitrate             Description
-----                   -------             -----------
MPEG-4 AVC Video        27752 kbps          1080p / 23,976 fps / 16:9 / High Profile 4.1
AUDIO:
Codec                           Language        Bitrate         Description
-----                           --------        -------         -----------
Dolby Digital Audio             Russian         192 kbps        2.0 / 48 kHz / 192 kbps / DN -4dB
DTS-HD Master Audio             English         3929 kbps       5.1 / 48 kHz / 3929 kbps / 24-bit (DTS Core: 5.1 / 48 kHz / 1509 kbps / 24-bit)
SUBTITLES:
Codec                           Language        Bitrate         Description
-----                           --------        -------         -----------
Presentation Graphics           English         45,616 kbps
FILES:
Name            Time In         Length          Size            Total Bitrate
----            -------         ------          ----            -------------
00000.M2TS      0:00:00.000     0:45:14.586     11 423 182 848  33 665
CHAPTERS:
Number          Time In         Length          Avg Video Rate  Max 1-Sec Rate  Max 1-Sec Time  Max 5-Sec Rate  Max 5-Sec Time  Max 10Sec Rate  Max 10Sec Time  Avg Frame Size  Max Frame Size  Max Frame Time
------          -------         ------          --------------  --------------  --------------  --------------  --------------  --------------  --------------  --------------  --------------  --------------
1               0:00:00.000     0:02:15.759     21 239 kbps     40 819 kbps     00:00:12.345    37 175 kbps     00:00:08.341    36 982 kbps     00:00:03.336    110 695 bytes   449 298 bytes   00:01:20.413
2               0:02:15.759     0:03:03.850     34 519 kbps     39 146 kbps     00:04:24.764    37 013 kbps     00:04:36.275    36 792 kbps     00:02:29.899    179 965 bytes   441 075 bytes   00:03:22.202
3               0:05:19.609     0:03:08.521     31 678 kbps     39 261 kbps     00:06:19.420    37 064 kbps     00:06:15.583    36 676 kbps     00:06:10.578    165 157 bytes   414 209 bytes   00:06:03.821
4               0:08:28.131     0:06:01.444     30 657 kbps     49 547 kbps     00:10:49.440    38 880 kbps     00:10:45.561    37 755 kbps     00:10:40.556    159 833 bytes   448 403 bytes   00:09:09.799
5               0:14:29.576     0:01:29.838     27 330 kbps     39 692 kbps     00:14:47.595    36 886 kbps     00:14:46.677    34 227 kbps     00:14:43.841    142 483 bytes   639 195 bytes   00:14:48.596
6               0:15:59.415     0:06:04.030     29 303 kbps     40 585 kbps     00:20:32.648    37 510 kbps     00:20:28.602    37 177 kbps     00:20:23.597    152 774 bytes   638 685 bytes   00:19:54.902
7               0:22:03.445     0:06:28.930     30 326 kbps     39 893 kbps     00:28:05.141    37 338 kbps     00:28:03.139    36 835 kbps     00:27:58.134    158 103 bytes   637 474 bytes   00:27:17.969
8               0:28:32.376     0:05:01.844     30 124 kbps     42 925 kbps     00:33:30.258    37 043 kbps     00:28:38.425    36 784 kbps     00:31:20.587    157 055 bytes   508 605 bytes   00:33:31.134
9               0:33:34.220     0:01:54.070     28 024 kbps     40 312 kbps     00:34:54.842    37 337 kbps     00:34:51.839    36 937 kbps     00:34:51.839    146 105 bytes   638 864 bytes   00:34:52.882
10              0:35:28.291     0:04:04.202     28 363 kbps     37 795 kbps     00:36:25.474    36 844 kbps     00:36:35.902    36 760 kbps     00:36:30.897    147 873 bytes   342 622 bytes   00:36:25.516
11              0:39:32.493     0:03:01.847     24 564 kbps     42 977 kbps     00:41:27.234    37 733 kbps     00:41:23.189    37 257 kbps     00:41:18.184    128 064 bytes   563 363 bytes   00:42:22.081
12              0:42:34.341     0:02:40.244     2 825 kbps      26 156 kbps     00:45:09.373    14 086 kbps     00:45:05.494    7 675 kbps      00:45:00.489    14 738 bytes    419 695 bytes   00:44:53.816
STREAM DIAGNOSTICS:
File            PID             Type            Codec           Language                Seconds                 Bitrate                 Bytes           Packets
----            ---             ----            -----           --------                --------------          --------------          -------------   -----
00000.M2TS      4113 (0x1011)   0x1B            AVC                                     2714,420                27 754                  9 416 918 061   51 216 889
00000.M2TS      4352 (0x1100)   0x81            AC3             rus (Russian)           2714,420                192                     65 150 208      424 155
00000.M2TS      4353 (0x1101)   0x86            DTS-HD MA       eng (English)           2714,420                3 929                   1 333 187 736   7 666 372
00000.M2TS      4608 (0x1200)   0x90            PGS             eng (English)           2714,420                46                      15 478 572      87 735
QUICK SUMMARY:
Disc Title: Cosmos.A.Spacetime.Odyssey.2014.S01E02.BluRay.Remux.1080p.Rus.Eng.HDCLUB
Disc Size: 11 423 221 836 bytes
Protection: AACS
BD-Java: No
Playlist: 00000.MPLS
Size: 11 423 182 848 bytes
Length: 0:45:14.586
Total Bitrate: 33,66 Mbps
Video: MPEG-4 AVC Video / 27752 kbps / 1080p / 23,976 fps / 16:9 / High Profile 4.1
Audio: Russian / Dolby Digital Audio / 2.0 / 48 kHz / 192 kbps / DN -4dB
Audio: English / DTS-HD Master Audio / 5.1 / 48 kHz / 3929 kbps / 24-bit (DTS Core: 5.1 / 48 kHz / 1509 kbps / 24-bit)
Subtitle: English / 45,616 kbps Disc Title: Cosmos.A.Spacetime.Odyssey.2014.S01E03.BluRay.Remux.1080p.Rus.Eng.HDCLUB
Disc Size: 11 622 455 924 bytes
Protection: AACS
BD-Java: No
BDInfo: 0.5.8
Notes:
BDINFO HOME:
Cinema Squid
http://www.cinemasquid.com/blu-ray/tools/bdinfo
INCLUDES FORUMS REPORT FOR:
AVS Forum Blu-ray Audio and Video Specifications Thread
http://www.avsforum.com/avs-vb/showthread.php?t=1155731
********************
PLAYLIST: 00000.MPLS
********************
Total   Video
Title                                                           Codec   Length  Movie Size      Disc Size       Bitrate Bitrate Main Audio Track                          Secondary Audio Track
-----                                                           ------  ------- --------------  --------------  ------- ------- ------------------                        ---------------------
00000.MPLS                                                      AVC     0:46:03 11 622 416 448  11 622 455 924  33,65   27,73   DD AC3 2.0 192Kbps
DISC INFO:
Disc Title:     Cosmos.A.Spacetime.Odyssey.2014.S01E03.BluRay.Remux.1080p.Rus.Eng.HDCLUB
Disc Size:      11 622 455 924 bytes
Protection:     AACS
BD-Java:        No
BDInfo:         0.5.8
PLAYLIST REPORT:
Name:                   00000.MPLS
Length:                 0:46:03.177 (h:m:s.ms)
Size:                   11 622 416 448 bytes
Total Bitrate:          33,65 Mbps
VIDEO:
Codec                   Bitrate             Description
-----                   -------             -----------
MPEG-4 AVC Video        27727 kbps          1080p / 23,976 fps / 16:9 / High Profile 4.1
AUDIO:
Codec                           Language        Bitrate         Description
-----                           --------        -------         -----------
Dolby Digital Audio             Russian         192 kbps        2.0 / 48 kHz / 192 kbps / DN -4dB
DTS-HD Master Audio             English         3952 kbps       5.1 / 48 kHz / 3952 kbps / 24-bit (DTS Core: 5.1 / 48 kHz / 1509 kbps / 24-bit)
SUBTITLES:
Codec                           Language        Bitrate         Description
-----                           --------        -------         -----------
Presentation Graphics           English         50,008 kbps
FILES:
Name            Time In         Length          Size            Total Bitrate
----            -------         ------          ----            -------------
00000.M2TS      0:00:00.000     0:46:03.177     11 622 416 448  33 667
CHAPTERS:
Number          Time In         Length          Avg Video Rate  Max 1-Sec Rate  Max 1-Sec Time  Max 5-Sec Rate  Max 5-Sec Time  Max 10Sec Rate  Max 10Sec Time  Avg Frame Size  Max Frame Size  Max Frame Time
------          -------         ------          --------------  --------------  --------------  --------------  --------------  --------------  --------------  --------------  --------------  --------------
1               0:00:00.000     0:01:32.634     17 269 kbps     40 749 kbps     00:00:46.045    30 100 kbps     00:00:06.715    29 469 kbps     00:00:02.711    89 993 bytes    484 040 bytes   00:00:37.287
2               0:01:32.634     0:04:33.271     24 926 kbps     46 202 kbps     00:04:28.101    36 858 kbps     00:04:24.264    35 386 kbps     00:01:37.013    129 951 bytes   542 808 bytes   00:04:28.851
3               0:06:05.905     0:05:42.217     29 314 kbps     41 093 kbps     00:10:59.784    37 166 kbps     00:08:23.753    36 901 kbps     00:08:33.471    152 831 bytes   477 146 bytes   00:08:33.512
4               0:11:48.123     0:04:31.228     31 952 kbps     43 743 kbps     00:15:53.577    38 232 kbps     00:15:49.573    37 405 kbps     00:15:44.568    166 580 bytes   627 263 bytes   00:15:24.465
5               0:16:19.351     0:02:57.843     32 121 kbps     39 229 kbps     00:18:14.134    36 995 kbps     00:17:56.742    36 837 kbps     00:17:17.453    167 464 bytes   463 877 bytes   00:19:12.526
6               0:19:17.195     0:05:36.294     32 766 kbps     41 575 kbps     00:20:33.857    37 623 kbps     00:20:23.764    37 089 kbps     00:20:18.717    170 828 bytes   500 612 bytes   00:20:55.545
7               0:24:53.489     0:02:49.086     32 673 kbps     41 228 kbps     00:25:10.634    37 450 kbps     00:26:38.471    36 959 kbps     00:27:16.092    170 342 bytes   524 080 bytes   00:25:09.341
8               0:27:42.576     0:03:45.559     28 030 kbps     39 310 kbps     00:28:23.159    37 220 kbps     00:29:14.711    36 973 kbps     00:29:14.711    146 135 bytes   553 832 bytes   00:29:26.723
9               0:31:28.135     0:03:55.652     29 982 kbps     42 869 kbps     00:32:52.095    37 569 kbps     00:32:48.091    37 075 kbps     00:32:25.943    156 315 bytes   428 340 bytes   00:32:12.847
10              0:35:23.787     0:02:50.587     23 943 kbps     42 181 kbps     00:37:31.707    36 839 kbps     00:35:38.761    36 779 kbps     00:35:33.756    124 829 bytes   367 244 bytes   00:37:25.242
11              0:38:14.375     0:05:08.556     30 139 kbps     39 447 kbps     00:39:36.832    37 154 kbps     00:41:05.129    36 938 kbps     00:41:00.124    157 131 bytes   396 493 bytes   00:38:37.440
12              0:43:22.931     0:02:40.245     2 739 kbps      30 041 kbps     00:45:56.545    15 963 kbps     00:45:54.042    9 073 kbps      00:45:49.037    14 422 bytes    426 637 bytes   00:44:26.997
STREAM DIAGNOSTICS:
File            PID             Type            Codec           Language                Seconds                 Bitrate                 Bytes           Packets
----            ---             ----            -----           --------                --------------          --------------          -------------   -----
00000.M2TS      4113 (0x1011)   0x1B            AVC                                     2761,550                27 729                  9 572 012 316   52 060 237
00000.M2TS      4352 (0x1100)   0x81            AC3             rus (Russian)           2761,550                192                     66 278 400      431 500
00000.M2TS      4353 (0x1101)   0x86            DTS-HD MA       eng (English)           2761,550                3 953                   1 364 441 935   7 841 880
00000.M2TS      4608 (0x1200)   0x90            PGS             eng (English)           2761,550                50                      17 263 643      97 471
QUICK SUMMARY:
Disc Title: Cosmos.A.Spacetime.Odyssey.2014.S01E03.BluRay.Remux.1080p.Rus.Eng.HDCLUB
Disc Size: 11 622 455 924 bytes
Protection: AACS
BD-Java: No
Playlist: 00000.MPLS
Size: 11 622 416 448 bytes
Length: 0:46:03.177
Total Bitrate: 33,65 Mbps
Video: MPEG-4 AVC Video / 27727 kbps / 1080p / 23,976 fps / 16:9 / High Profile 4.1
Audio: Russian / Dolby Digital Audio / 2.0 / 48 kHz / 192 kbps / DN -4dB
Audio: English / DTS-HD Master Audio / 5.1 / 48 kHz / 3952 kbps / 24-bit (DTS Core: 5.1 / 48 kHz / 1509 kbps / 24-bit)
Subtitle: English / 50,008 kbps Disc Title: Cosmos.A.Spacetime.Odyssey.2014.S01E04.BluRay.Remux.1080p.Rus.Eng.HDCLUB
Disc Size: 13 340 023 092 bytes
Protection: AACS
BD-Java: No
BDInfo: 0.5.8
Notes:
BDINFO HOME:
Cinema Squid
http://www.cinemasquid.com/blu-ray/tools/bdinfo
INCLUDES FORUMS REPORT FOR:
AVS Forum Blu-ray Audio and Video Specifications Thread
http://www.avsforum.com/avs-vb/showthread.php?t=1155731
********************
PLAYLIST: 00000.MPLS
********************
Total   Video
Title                                                           Codec   Length  Movie Size      Disc Size       Bitrate Bitrate Main Audio Track                          Secondary Audio Track
-----                                                           ------  ------- --------------  --------------  ------- ------- ------------------                        ---------------------
00000.MPLS                                                      AVC     0:44:07 13 339 983 936  13 340 023 092  40,31   34,04   DD AC3 2.0 192Kbps
DISC INFO:
Disc Title:     Cosmos.A.Spacetime.Odyssey.2014.S01E04.BluRay.Remux.1080p.Rus.Eng.HDCLUB
Disc Size:      13 340 023 092 bytes
Protection:     AACS
BD-Java:        No
BDInfo:         0.5.8
PLAYLIST REPORT:
Name:                   00000.MPLS
Length:                 0:44:07.353 (h:m:s.ms)
Size:                   13 339 983 936 bytes
Total Bitrate:          40,31 Mbps
VIDEO:
Codec                   Bitrate             Description
-----                   -------             -----------
MPEG-4 AVC Video        34044 kbps          1080p / 23,976 fps / 16:9 / High Profile 4.1
AUDIO:
Codec                           Language        Bitrate         Description
-----                           --------        -------         -----------
Dolby Digital Audio             Russian         192 kbps        2.0 / 48 kHz / 192 kbps / DN -4dB
DTS-HD Master Audio             English         4063 kbps       5.1 / 48 kHz / 4063 kbps / 24-bit (DTS Core: 5.1 / 48 kHz / 1509 kbps / 24-bit)
SUBTITLES:
Codec                           Language        Bitrate         Description
-----                           --------        -------         -----------
Presentation Graphics           English         46,313 kbps
FILES:
Name            Time In         Length          Size            Total Bitrate
----            -------         ------          ----            -------------
00000.M2TS      0:00:00.000     0:44:07.353     13 339 983 936  40 373
CHAPTERS:
Number          Time In         Length          Avg Video Rate  Max 1-Sec Rate  Max 1-Sec Time  Max 5-Sec Rate  Max 5-Sec Time  Max 10Sec Rate  Max 10Sec Time  Avg Frame Size  Max Frame Size  Max Frame Time
------          -------         ------          --------------  --------------  --------------  --------------  --------------  --------------  --------------  --------------  --------------  --------------
1               0:00:00.000     0:04:37.650     35 799 kbps     51 738 kbps     00:03:04.934    39 970 kbps     00:03:00.972    38 325 kbps     00:02:55.925    186 611 bytes   612 322 bytes   00:03:05.685
2               0:04:37.650     0:05:08.975     36 415 kbps     46 965 kbps     00:07:47.258    38 664 kbps     00:07:43.254    37 657 kbps     00:07:38.249    189 853 bytes   585 393 bytes   00:07:09.429
3               0:09:46.626     0:02:58.262     35 729 kbps     53 259 kbps     00:10:39.930    39 933 kbps     00:10:35.926    37 756 kbps     00:10:30.921    186 276 bytes   638 947 bytes   00:10:43.809
4               0:12:44.889     0:02:48.125     36 024 kbps     52 164 kbps     00:14:55.477    40 125 kbps     00:14:51.473    38 262 kbps     00:14:46.468    187 811 bytes   627 155 bytes   00:14:56.186
5               0:15:33.014     0:03:47.519     36 033 kbps     40 104 kbps     00:18:15.969    37 187 kbps     00:18:11.965    36 994 kbps     00:18:06.960    187 859 bytes   446 562 bytes   00:19:16.697
6               0:19:20.533     0:02:19.305     36 040 kbps     40 587 kbps     00:20:20.844    37 784 kbps     00:20:35.484    37 267 kbps     00:20:31.396    187 893 bytes   640 616 bytes   00:20:39.196
7               0:21:39.839     0:03:30.001     35 924 kbps     40 405 kbps     00:22:13.081    37 428 kbps     00:22:09.077    36 962 kbps     00:22:40.192    187 291 bytes   632 906 bytes   00:22:15.042
8               0:25:09.840     0:04:48.287     36 171 kbps     40 016 kbps     00:27:58.218    37 315 kbps     00:27:42.410    37 016 kbps     00:29:04.659    188 581 bytes   621 469 bytes   00:29:14.669
9               0:29:58.127     0:02:47.293     36 526 kbps     39 279 kbps     00:30:19.567    37 202 kbps     00:30:15.605    36 932 kbps     00:30:10.558    190 429 bytes   309 278 bytes   00:30:45.718
10              0:32:45.421     0:02:23.476     35 300 kbps     40 197 kbps     00:33:41.602    37 136 kbps     00:34:40.119    36 917 kbps     00:34:34.906    184 039 bytes   513 608 bytes   00:33:06.484
11              0:35:08.898     0:06:18.210     35 728 kbps     55 386 kbps     00:39:47.510    40 509 kbps     00:39:43.506    38 410 kbps     00:39:38.501    186 270 bytes   635 883 bytes   00:39:49.136
12              0:41:27.108     0:02:40.245     3 088 kbps      46 229 kbps     00:44:02.139    22 227 kbps     00:43:58.177    12 535 kbps     00:43:53.130    16 525 bytes    482 943 bytes   00:44:02.931
STREAM DIAGNOSTICS:
File            PID             Type            Codec           Language                Seconds                 Bitrate                 Bytes           Packets
----            ---             ----            -----           --------                --------------          --------------          -------------   -----
00000.M2TS      4113 (0x1011)   0x1B            AVC                                     2643,140                34 047                  11 248 767 185  61 171 463
00000.M2TS      4352 (0x1100)   0x81            AC3             rus (Russian)           2643,140                192                     63 436 800      413 000
00000.M2TS      4353 (0x1101)   0x86            DTS-HD MA       eng (English)           2643,140                4 064                   1 342 573 320   7 709 847
00000.M2TS      4608 (0x1200)   0x90            PGS             eng (English)           2643,140                46                      15 302 823      86 828
QUICK SUMMARY:
Disc Title: Cosmos.A.Spacetime.Odyssey.2014.S01E04.BluRay.Remux.1080p.Rus.Eng.HDCLUB
Disc Size: 13 340 023 092 bytes
Protection: AACS
BD-Java: No
Playlist: 00000.MPLS
Size: 13 339 983 936 bytes
Length: 0:44:07.353
Total Bitrate: 40,31 Mbps
Video: MPEG-4 AVC Video / 34044 kbps / 1080p / 23,976 fps / 16:9 / High Profile 4.1
Audio: Russian / Dolby Digital Audio / 2.0 / 48 kHz / 192 kbps / DN -4dB
Audio: English / DTS-HD Master Audio / 5.1 / 48 kHz / 4063 kbps / 24-bit (DTS Core: 5.1 / 48 kHz / 1509 kbps / 24-bit)
Subtitle: English / 46,313 kbps Disc Title: Cosmos.A.Spacetime.Odyssey.2014.S01E05.BluRay.Remux.1080p.Rus.Eng.HDCLUB
Disc Size: 11 641 330 716 bytes
Protection: AACS
BD-Java: No
BDInfo: 0.5.8
Notes:
BDINFO HOME:
Cinema Squid
http://www.cinemasquid.com/blu-ray/tools/bdinfo
INCLUDES FORUMS REPORT FOR:
AVS Forum Blu-ray Audio and Video Specifications Thread
http://www.avsforum.com/avs-vb/showthread.php?t=1155731
********************
PLAYLIST: 00000.MPLS
********************
Total   Video
Title                                                           Codec   Length  Movie Size      Disc Size       Bitrate Bitrate Main Audio Track                          Secondary Audio Track
-----                                                           ------  ------- --------------  --------------  ------- ------- ------------------                        ---------------------
00000.MPLS                                                      AVC     0:46:03 11 641 290 816  11 641 330 716  33,70   27,77   DD AC3 2.0 192Kbps
DISC INFO:
Disc Title:     Cosmos.A.Spacetime.Odyssey.2014.S01E05.BluRay.Remux.1080p.Rus.Eng.HDCLUB
Disc Size:      11 641 330 716 bytes
Protection:     AACS
BD-Java:        No
BDInfo:         0.5.8
PLAYLIST REPORT:
Name:                   00000.MPLS
Length:                 0:46:03.260 (h:m:s.ms)
Size:                   11 641 290 816 bytes
Total Bitrate:          33,70 Mbps
VIDEO:
Codec                   Bitrate             Description
-----                   -------             -----------
MPEG-4 AVC Video        27770 kbps          1080p / 23,976 fps / 16:9 / High Profile 4.1
AUDIO:
Codec                           Language        Bitrate         Description
-----                           --------        -------         -----------
Dolby Digital Audio             Russian         192 kbps        2.0 / 48 kHz / 192 kbps / DN -4dB
DTS-HD Master Audio             English         3984 kbps       5.1 / 48 kHz / 3984 kbps / 24-bit (DTS Core: 5.1 / 48 kHz / 1509 kbps / 24-bit)
SUBTITLES:
Codec                           Language        Bitrate         Description
-----                           --------        -------         -----------
Presentation Graphics           English         45,234 kbps
FILES:
Name            Time In         Length          Size            Total Bitrate
----            -------         ------          ----            -------------
00000.M2TS      0:00:00.000     0:46:03.260     11 641 290 816  33 741
CHAPTERS:
Number          Time In         Length          Avg Video Rate  Max 1-Sec Rate  Max 1-Sec Time  Max 5-Sec Rate  Max 5-Sec Time  Max 10Sec Rate  Max 10Sec Time  Avg Frame Size  Max Frame Size  Max Frame Time
------          -------         ------          --------------  --------------  --------------  --------------  --------------  --------------  --------------  --------------  --------------  --------------
1               0:00:00.000     0:01:32.634     15 662 kbps     38 202 kbps     00:00:46.045    27 365 kbps     00:00:06.715    26 565 kbps     00:00:02.711    81 618 bytes    458 152 bytes   00:00:37.287
2               0:01:32.634     0:04:01.699     30 868 kbps     39 260 kbps     00:03:03.099    37 259 kbps     00:03:03.224    36 945 kbps     00:02:58.136    160 929 bytes   437 911 bytes   00:03:17.572
3               0:05:34.333     0:02:22.181     31 436 kbps     42 005 kbps     00:06:50.493    37 342 kbps     00:05:59.692    37 011 kbps     00:07:09.470    163 888 bytes   548 812 bytes   00:06:04.655
4               0:07:56.515     0:04:06.163     30 023 kbps     38 898 kbps     00:09:21.477    36 970 kbps     00:09:20.518    36 784 kbps     00:11:52.670    156 528 bytes   506 670 bytes   00:09:25.273
5               0:12:02.679     0:04:02.033     27 193 kbps     40 036 kbps     00:13:32.186    37 521 kbps     00:13:28.182    36 781 kbps     00:15:14.872    141 774 bytes   638 153 bytes   00:13:30.684
6               0:16:04.712     0:05:48.515     32 228 kbps     39 489 kbps     00:16:41.834    37 212 kbps     00:16:37.788    36 935 kbps     00:16:32.783    168 021 bytes   549 170 bytes   00:16:20.562
7               0:21:53.228     0:03:48.729     31 075 kbps     38 553 kbps     00:23:14.518    36 944 kbps     00:23:51.596    36 803 kbps     00:24:32.762    162 010 bytes   485 137 bytes   00:25:02.876
8               0:25:41.957     0:02:41.784     26 400 kbps     37 990 kbps     00:27:34.027    36 921 kbps     00:27:30.023    35 311 kbps     00:27:25.685    137 634 bytes   409 390 bytes   00:25:50.090
9               0:28:23.742     0:02:26.939     31 714 kbps     39 606 kbps     00:30:32.247    36 885 kbps     00:29:25.889    36 796 kbps     00:29:20.884    165 347 bytes   429 755 bytes   00:30:46.803
10              0:30:50.681     0:06:37.436     28 502 kbps     40 153 kbps     00:33:07.026    37 279 kbps     00:31:24.757    36 975 kbps     00:31:21.713    148 595 bytes   634 918 bytes   00:33:07.985
11              0:37:28.118     0:05:54.896     28 821 kbps     39 728 kbps     00:38:18.337    37 335 kbps     00:42:22.831    36 926 kbps     00:42:41.934    150 258 bytes   638 924 bytes   00:42:49.733
12              0:43:23.015     0:02:40.244     2 940 kbps      26 915 kbps     00:45:56.462    14 660 kbps     00:45:54.168    8 140 kbps      00:45:49.163    15 650 bytes    411 429 bytes   00:44:49.561
STREAM DIAGNOSTICS:
File            PID             Type            Codec           Language                Seconds                 Bitrate                 Bytes           Packets
----            ---             ----            -----           --------                --------------          --------------          -------------   -----
00000.M2TS      4113 (0x1011)   0x1B            AVC                                     2759,924                27 773                  9 581 409 436   52 111 395
00000.M2TS      4352 (0x1100)   0x81            AC3             rus (Russian)           2759,924                192                     66 239 232      431 245
00000.M2TS      4353 (0x1101)   0x86            DTS-HD MA       eng (English)           2759,924                3 984                   1 374 558 163   7 898 091
00000.M2TS      4608 (0x1200)   0x90            PGS             eng (English)           2759,924                45                      15 606 653      88 723
QUICK SUMMARY:
Disc Title: Cosmos.A.Spacetime.Odyssey.2014.S01E05.BluRay.Remux.1080p.Rus.Eng.HDCLUB
Disc Size: 11 641 330 716 bytes
Protection: AACS
BD-Java: No
Playlist: 00000.MPLS
Size: 11 641 290 816 bytes
Length: 0:46:03.260
Total Bitrate: 33,70 Mbps
Video: MPEG-4 AVC Video / 27770 kbps / 1080p / 23,976 fps / 16:9 / High Profile 4.1
Audio: Russian / Dolby Digital Audio / 2.0 / 48 kHz / 192 kbps / DN -4dB
Audio: English / DTS-HD Master Audio / 5.1 / 48 kHz / 3984 kbps / 24-bit (DTS Core: 5.1 / 48 kHz / 1509 kbps / 24-bit)
Subtitle: English / 45,234 kbps Disc Title: Cosmos.A.Spacetime.Odyssey.2014.S01E06.BluRay.Remux.1080p.Rus.Eng.HDCLUB
Disc Size: 13 828 943 444 bytes
Protection: AACS
BD-Java: No
BDInfo: 0.5.8
Notes:
BDINFO HOME:
Cinema Squid
http://www.cinemasquid.com/blu-ray/tools/bdinfo
INCLUDES FORUMS REPORT FOR:
AVS Forum Blu-ray Audio and Video Specifications Thread
http://www.avsforum.com/avs-vb/showthread.php?t=1155731
********************
PLAYLIST: 00000.MPLS
********************
Total   Video
Title                                                           Codec   Length  Movie Size      Disc Size       Bitrate Bitrate Main Audio Track                          Secondary Audio Track
-----                                                           ------  ------- --------------  --------------  ------- ------- ------------------                        ---------------------
00000.MPLS                                                      AVC     0:46:03 13 828 902 912  13 828 943 444  40,04   33,69   DD AC3 2.0 192Kbps
DISC INFO:
Disc Title:     Cosmos.A.Spacetime.Odyssey.2014.S01E06.BluRay.Remux.1080p.Rus.Eng.HDCLUB
Disc Size:      13 828 943 444 bytes
Protection:     AACS
BD-Java:        No
BDInfo:         0.5.8
PLAYLIST REPORT:
Name:                   00000.MPLS
Length:                 0:46:03.093 (h:m:s.ms)
Size:                   13 828 902 912 bytes
Total Bitrate:          40,04 Mbps
VIDEO:
Codec                   Bitrate             Description
-----                   -------             -----------
MPEG-4 AVC Video        33685 kbps          1080p / 23,976 fps / 16:9 / High Profile 4.1
AUDIO:
Codec                           Language        Bitrate         Description
-----                           --------        -------         -----------
Dolby Digital Audio             Russian         192 kbps        2.0 / 48 kHz / 192 kbps / DN -4dB
DTS-HD Master Audio             English         4097 kbps       5.1 / 48 kHz / 4097 kbps / 24-bit (DTS Core: 5.1 / 48 kHz / 1509 kbps / 24-bit)
SUBTITLES:
Codec                           Language        Bitrate         Description
-----                           --------        -------         -----------
Presentation Graphics           English         51,383 kbps
FILES:
Name            Time In         Length          Size            Total Bitrate
----            -------         ------          ----            -------------
00000.M2TS      0:00:00.000     0:46:03.093     13 828 902 912  40 039
CHAPTERS:
Number          Time In         Length          Avg Video Rate  Max 1-Sec Rate  Max 1-Sec Time  Max 5-Sec Rate  Max 5-Sec Time  Max 10Sec Rate  Max 10Sec Time  Avg Frame Size  Max Frame Size  Max Frame Time
------          -------         ------          --------------  --------------  --------------  --------------  --------------  --------------  --------------  --------------  --------------  --------------
1               0:00:00.000     0:02:41.118     35 274 kbps     47 146 kbps     00:01:08.401    38 396 kbps     00:01:04.397    37 584 kbps     00:00:59.476    183 852 bytes   554 478 bytes   00:01:45.772
2               0:02:41.118     0:04:26.474     36 071 kbps     40 003 kbps     00:03:48.269    37 124 kbps     00:03:13.943    36 905 kbps     00:03:08.813    188 059 bytes   420 165 bytes   00:07:01.421
3               0:07:07.592     0:03:18.907     36 421 kbps     50 593 kbps     00:10:24.624    39 432 kbps     00:10:20.620    38 048 kbps     00:10:15.615    189 884 bytes   636 937 bytes   00:10:25.416
4               0:10:26.500     0:05:21.697     35 997 kbps     44 550 kbps     00:10:53.486    37 764 kbps     00:14:05.052    37 238 kbps     00:14:00.047    187 670 bytes   552 836 bytes   00:12:53.939
5               0:15:48.197     0:03:45.140     36 400 kbps     44 210 kbps     00:15:51.367    37 127 kbps     00:19:09.439    36 905 kbps     00:19:04.434    189 771 bytes   636 034 bytes   00:15:51.867
6               0:19:33.337     0:03:39.053     36 139 kbps     42 289 kbps     00:22:42.903    37 167 kbps     00:19:38.886    36 876 kbps     00:19:49.062    188 377 bytes   428 922 bytes   00:22:43.445
7               0:23:12.390     0:03:23.953     36 471 kbps     45 762 kbps     00:26:14.072    38 533 kbps     00:26:10.068    37 378 kbps     00:25:33.448    190 179 bytes   493 746 bytes   00:24:40.020
8               0:26:36.344     0:03:58.488     36 045 kbps     41 873 kbps     00:27:04.331    37 504 kbps     00:26:50.025    37 072 kbps     00:30:17.607    187 888 bytes   640 215 bytes   00:30:01.966
9               0:30:34.832     0:03:12.609     29 349 kbps     53 406 kbps     00:31:49.824    39 946 kbps     00:31:45.903    38 310 kbps     00:31:40.898    153 047 bytes   640 673 bytes   00:31:32.640
10              0:33:47.442     0:03:32.795     36 033 kbps     41 666 kbps     00:35:13.402    37 050 kbps     00:35:05.645    36 827 kbps     00:35:00.598    187 857 bytes   540 395 bytes   00:37:16.525
11              0:37:20.237     0:06:02.612     35 744 kbps     56 172 kbps     00:43:18.554    40 504 kbps     00:43:14.550    38 561 kbps     00:43:09.545    186 352 bytes   621 244 bytes   00:43:19.346
12              0:43:22.849     0:02:40.244     3 292 kbps      49 389 kbps     00:45:58.005    23 613 kbps     00:45:54.001    13 099 kbps     00:45:49.079    17 174 bytes    566 652 bytes   00:45:58.755
STREAM DIAGNOSTICS:
File            PID             Type            Codec           Language                Seconds                 Bitrate                 Bytes           Packets
----            ---             ----            -----           --------                --------------          --------------          -------------   -----
00000.M2TS      4113 (0x1011)   0x1B            AVC                                     2762,927                33 687                  11 634 364 623  63 268 509
00000.M2TS      4352 (0x1100)   0x81            AC3             rus (Russian)           2762,927                192                     66 314 496      431 735
00000.M2TS      4353 (0x1101)   0x86            DTS-HD MA       eng (English)           2762,927                4 098                   1 415 182 836   8 122 180
00000.M2TS      4608 (0x1200)   0x90            PGS             eng (English)           2762,927                51                      17 746 974      100 703
QUICK SUMMARY:
Disc Title: Cosmos.A.Spacetime.Odyssey.2014.S01E06.BluRay.Remux.1080p.Rus.Eng.HDCLUB
Disc Size: 13 828 943 444 bytes
Protection: AACS
BD-Java: No
Playlist: 00000.MPLS
Size: 13 828 902 912 bytes
Length: 0:46:03.093
Total Bitrate: 40,04 Mbps
Video: MPEG-4 AVC Video / 33685 kbps / 1080p / 23,976 fps / 16:9 / High Profile 4.1
Audio: Russian / Dolby Digital Audio / 2.0 / 48 kHz / 192 kbps / DN -4dB
Audio: English / DTS-HD Master Audio / 5.1 / 48 kHz / 4097 kbps / 24-bit (DTS Core: 5.1 / 48 kHz / 1509 kbps / 24-bit)
Subtitle: English / 51,383 kbps Disc Title: Cosmos.A.Spacetime.Odyssey.2014.S01E07.BluRay.Remux.1080p.Rus.Eng.HDCLUB
Disc Size: 13 342 120 604 bytes
Protection: AACS
BD-Java: No
BDInfo: 0.5.8
Notes:
BDINFO HOME:
Cinema Squid
http://www.cinemasquid.com/blu-ray/tools/bdinfo
INCLUDES FORUMS REPORT FOR:
AVS Forum Blu-ray Audio and Video Specifications Thread
http://www.avsforum.com/avs-vb/showthread.php?t=1155731
********************
PLAYLIST: 00000.MPLS
********************
Total   Video
Title                                                           Codec   Length  Movie Size      Disc Size       Bitrate Bitrate Main Audio Track                          Secondary Audio Track
-----                                                           ------  ------- --------------  --------------  ------- ------- ------------------                        ---------------------
00000.MPLS                                                      AVC     0:44:05 13 342 081 152  13 342 120 604  40,35   34,05   DD AC3 2.0 192Kbps
DISC INFO:
Disc Title:     Cosmos.A.Spacetime.Odyssey.2014.S01E07.BluRay.Remux.1080p.Rus.Eng.HDCLUB
Disc Size:      13 342 120 604 bytes
Protection:     AACS
BD-Java:        No
BDInfo:         0.5.8
PLAYLIST REPORT:
Name:                   00000.MPLS
Length:                 0:44:05.184 (h:m:s.ms)
Size:                   13 342 081 152 bytes
Total Bitrate:          40,35 Mbps
VIDEO:
Codec                   Bitrate             Description
-----                   -------             -----------
MPEG-4 AVC Video        34052 kbps          1080p / 23,976 fps / 16:9 / High Profile 4.1
AUDIO:
Codec                           Language        Bitrate         Description
-----                           --------        -------         -----------
Dolby Digital Audio             Russian         192 kbps        2.0 / 48 kHz / 192 kbps / DN -4dB
DTS-HD Master Audio             English         4047 kbps       5.1 / 48 kHz / 4047 kbps / 24-bit (DTS Core: 5.1 / 48 kHz / 1509 kbps / 24-bit)
SUBTITLES:
Codec                           Language        Bitrate         Description
-----                           --------        -------         -----------
Presentation Graphics           English         46,385 kbps
FILES:
Name            Time In         Length          Size            Total Bitrate
----            -------         ------          ----            -------------
00000.M2TS      0:00:00.000     0:44:05.184     13 342 081 152  40 361
CHAPTERS:
Number          Time In         Length          Avg Video Rate  Max 1-Sec Rate  Max 1-Sec Time  Max 5-Sec Rate  Max 5-Sec Time  Max 10Sec Rate  Max 10Sec Time  Avg Frame Size  Max Frame Size  Max Frame Time
------          -------         ------          --------------  --------------  --------------  --------------  --------------  --------------  --------------  --------------  --------------  --------------
1               0:00:00.000     0:02:35.822     34 837 kbps     45 531 kbps     00:01:48.191    38 150 kbps     00:00:57.432    37 214 kbps     00:00:52.427    181 573 bytes   546 960 bytes   00:01:39.474
2               0:02:35.822     0:06:27.220     35 938 kbps     52 862 kbps     00:05:12.186    39 778 kbps     00:05:08.182    37 479 kbps     00:05:03.177    187 362 bytes   639 379 bytes   00:07:25.736
3               0:09:03.042     0:05:36.210     36 046 kbps     41 921 kbps     00:09:11.217    37 651 kbps     00:09:07.213    37 051 kbps     00:13:19.757    187 929 bytes   635 937 bytes   00:13:29.558
4               0:14:39.252     0:03:55.150     36 307 kbps     45 849 kbps     00:17:49.318    38 502 kbps     00:17:45.314    37 139 kbps     00:17:40.350    189 285 bytes   561 919 bytes   00:16:22.856
5               0:18:34.403     0:04:24.472     36 109 kbps     43 613 kbps     00:22:23.258    37 983 kbps     00:22:19.212    37 354 kbps     00:22:14.207    188 255 bytes   460 237 bytes   00:22:24.843
6               0:22:58.876     0:03:54.109     36 454 kbps     41 963 kbps     00:23:35.122    37 775 kbps     00:23:31.076    37 180 kbps     00:23:26.113    190 055 bytes   529 284 bytes   00:23:35.872
7               0:26:52.985     0:03:50.980     35 938 kbps     40 207 kbps     00:27:47.540    37 343 kbps     00:27:47.499    37 012 kbps     00:27:47.499    187 366 bytes   640 860 bytes   00:28:09.312
8               0:30:43.966     0:01:54.155     36 446 kbps     38 960 kbps     00:32:03.504    36 987 kbps     00:31:52.368    36 819 kbps     00:31:46.237    190 014 bytes   355 130 bytes   00:31:32.140
9               0:32:38.122     0:04:00.989     36 612 kbps     38 835 kbps     00:36:13.379    37 121 kbps     00:35:27.250    36 868 kbps     00:35:22.370    190 878 bytes   419 245 bytes   00:32:40.833
10              0:36:39.112     0:00:44.336     34 039 kbps     39 342 kbps     00:37:00.968    37 129 kbps     00:36:57.006    36 913 kbps     00:36:52.001    177 465 bytes   369 228 bytes   00:36:43.075
11              0:37:23.448     0:04:01.491     35 910 kbps     45 977 kbps     00:40:30.594    38 625 kbps     00:40:26.715    37 658 kbps     00:40:21.585    187 216 bytes   501 891 bytes   00:40:31.220
12              0:41:24.939     0:02:40.244     3 118 kbps      36 792 kbps     00:43:58.427    20 629 kbps     00:43:56.050    11 587 kbps     00:43:51.045    16 335 bytes    426 637 bytes   00:42:18.994
STREAM DIAGNOSTICS:
File            PID             Type            Codec           Language                Seconds                 Bitrate                 Bytes           Packets
----            ---             ----            -----           --------                --------------          --------------          -------------   -----
00000.M2TS      4113 (0x1011)   0x1B            AVC                                     2644,350                34 054                  11 256 280 973  61 212 426
00000.M2TS      4352 (0x1100)   0x81            AC3             rus (Russian)           2644,350                192                     63 466 752      413 195
00000.M2TS      4353 (0x1101)   0x86            DTS-HD MA       eng (English)           2644,350                4 047                   1 337 812 943   7 679 852
00000.M2TS      4608 (0x1200)   0x90            PGS             eng (English)           2644,350                46                      15 333 293      86 541
QUICK SUMMARY:
Disc Title: Cosmos.A.Spacetime.Odyssey.2014.S01E07.BluRay.Remux.1080p.Rus.Eng.HDCLUB
Disc Size: 13 342 120 604 bytes
Protection: AACS
BD-Java: No
Playlist: 00000.MPLS
Size: 13 342 081 152 bytes
Length: 0:44:05.184
Total Bitrate: 40,35 Mbps
Video: MPEG-4 AVC Video / 34052 kbps / 1080p / 23,976 fps / 16:9 / High Profile 4.1
Audio: Russian / Dolby Digital Audio / 2.0 / 48 kHz / 192 kbps / DN -4dB
Audio: English / DTS-HD Master Audio / 5.1 / 48 kHz / 4047 kbps / 24-bit (DTS Core: 5.1 / 48 kHz / 1509 kbps / 24-bit)
Subtitle: English / 46,385 kbps Disc Title: Cosmos.A.Spacetime.Odyssey.2014.S01E08.BluRay.Remux.1080p.Rus.Eng.HDCLUB
Disc Size: 13 028 513 132 bytes
Protection: AACS
BD-Java: No
BDInfo: 0.5.8
Notes:
BDINFO HOME:
Cinema Squid
http://www.cinemasquid.com/blu-ray/tools/bdinfo
INCLUDES FORUMS REPORT FOR:
AVS Forum Blu-ray Audio and Video Specifications Thread
http://www.avsforum.com/avs-vb/showthread.php?t=1155731
********************
PLAYLIST: 00000.MPLS
********************
Total   Video
Title                                                           Codec   Length  Movie Size      Disc Size       Bitrate Bitrate Main Audio Track                          Secondary Audio Track
-----                                                           ------  ------- --------------  --------------  ------- ------- ------------------                        ---------------------
00000.MPLS                                                      AVC     0:43:11 13 028 474 880  13 028 513 132  40,21   33,93   DD AC3 2.0 192Kbps
DISC INFO:
Disc Title:     Cosmos.A.Spacetime.Odyssey.2014.S01E08.BluRay.Remux.1080p.Rus.Eng.HDCLUB
Disc Size:      13 028 513 132 bytes
Protection:     AACS
BD-Java:        No
BDInfo:         0.5.8
PLAYLIST REPORT:
Name:                   00000.MPLS
Length:                 0:43:11.922 (h:m:s.ms)
Size:                   13 028 474 880 bytes
Total Bitrate:          40,21 Mbps
VIDEO:
Codec                   Bitrate             Description
-----                   -------             -----------
MPEG-4 AVC Video        33934 kbps          1080p / 23,976 fps / 16:9 / High Profile 4.1
AUDIO:
Codec                           Language        Bitrate         Description
-----                           --------        -------         -----------
Dolby Digital Audio             Russian         192 kbps        2.0 / 48 kHz / 192 kbps / DN -4dB
DTS-HD Master Audio             English         4019 kbps       5.1 / 48 kHz / 4019 kbps / 24-bit (DTS Core: 5.1 / 48 kHz / 1509 kbps / 24-bit)
SUBTITLES:
Codec                           Language        Bitrate         Description
-----                           --------        -------         -----------
Presentation Graphics           English         46,935 kbps
FILES:
Name            Time In         Length          Size            Total Bitrate
----            -------         ------          ----            -------------
00000.M2TS      0:00:00.000     0:43:11.922     13 028 474 880  40 213
CHAPTERS:
Number          Time In         Length          Avg Video Rate  Max 1-Sec Rate  Max 1-Sec Time  Max 5-Sec Rate  Max 5-Sec Time  Max 10Sec Rate  Max 10Sec Time  Avg Frame Size  Max Frame Size  Max Frame Time
------          -------         ------          --------------  --------------  --------------  --------------  --------------  --------------  --------------  --------------  --------------  --------------
1               0:00:00.000     0:02:32.817     35 086 kbps     46 953 kbps     00:01:00.226    38 796 kbps     00:00:56.222    37 634 kbps     00:00:51.217    182 869 bytes   631 891 bytes   00:01:01.060
2               0:02:32.817     0:05:39.172     35 985 kbps     41 363 kbps     00:07:29.323    37 652 kbps     00:07:25.319    37 097 kbps     00:07:20.314    187 608 bytes   581 091 bytes   00:08:07.945
3               0:08:11.989     0:04:35.860     35 628 kbps     41 510 kbps     00:10:00.182    37 498 kbps     00:09:57.346    37 063 kbps     00:09:52.383    185 750 bytes   638 363 bytes   00:08:13.910
4               0:12:47.850     0:05:37.127     36 142 kbps     40 225 kbps     00:14:22.611    37 503 kbps     00:14:18.691    36 950 kbps     00:14:13.602    188 429 bytes   593 508 bytes   00:18:20.933
5               0:18:24.978     0:02:30.943     36 465 kbps     42 730 kbps     00:20:01.867    37 901 kbps     00:19:57.863    37 297 kbps     00:19:52.858    190 110 bytes   356 162 bytes   00:18:50.379
6               0:20:55.921     0:01:40.516     35 702 kbps     42 494 kbps     00:22:32.601    37 966 kbps     00:22:28.597    37 324 kbps     00:22:23.592    186 136 bytes   615 495 bytes   00:22:33.477
7               0:22:36.438     0:02:40.117     35 583 kbps     45 313 kbps     00:23:47.092    38 015 kbps     00:23:43.088    37 287 kbps     00:23:38.041    185 515 bytes   474 503 bytes   00:23:54.558
8               0:25:16.555     0:04:10.291     36 198 kbps     40 730 kbps     00:29:06.661    37 422 kbps     00:28:14.192    37 073 kbps     00:28:09.312    188 720 bytes   558 431 bytes   00:25:24.606
9               0:29:26.846     0:02:41.703     35 892 kbps     42 712 kbps     00:31:03.778    37 883 kbps     00:30:59.774    37 051 kbps     00:31:13.663    187 126 bytes   601 903 bytes   00:31:38.730
10              0:32:08.550     0:04:03.284     36 456 kbps     42 943 kbps     00:33:27.672    37 924 kbps     00:33:23.668    37 298 kbps     00:33:18.663    190 066 bytes   605 184 bytes   00:32:22.482
11              0:36:11.835     0:04:19.844     36 065 kbps     39 927 kbps     00:36:47.830    37 300 kbps     00:36:43.826    36 993 kbps     00:36:38.821    188 027 bytes   563 621 bytes   00:36:49.790
12              0:40:31.679     0:02:40.243     2 990 kbps      36 860 kbps     00:43:06.125    20 372 kbps     00:43:02.788    11 759 kbps     00:42:57.825    15 596 bytes    435 662 bytes   00:42:58.158
STREAM DIAGNOSTICS:
File            PID             Type            Codec           Language                Seconds                 Bitrate                 Bytes           Packets
----            ---             ----            -----           --------                --------------          --------------          -------------   -----
00000.M2TS      4113 (0x1011)   0x1B            AVC                                     2591,756                33 936                  10 994 203 772  59 787 319
00000.M2TS      4352 (0x1100)   0x81            AC3             rus (Russian)           2591,756                192                     62 206 464      404 990
00000.M2TS      4353 (0x1101)   0x86            DTS-HD MA       eng (English)           2591,756                4 020                   1 302 207 956   7 482 454
00000.M2TS      4608 (0x1200)   0x90            PGS             eng (English)           2591,756                47                      15 206 416      85 830
QUICK SUMMARY:
Disc Title: Cosmos.A.Spacetime.Odyssey.2014.S01E08.BluRay.Remux.1080p.Rus.Eng.HDCLUB
Disc Size: 13 028 513 132 bytes
Protection: AACS
BD-Java: No
Playlist: 00000.MPLS
Size: 13 028 474 880 bytes
Length: 0:43:11.922
Total Bitrate: 40,21 Mbps
Video: MPEG-4 AVC Video / 33934 kbps / 1080p / 23,976 fps / 16:9 / High Profile 4.1
Audio: Russian / Dolby Digital Audio / 2.0 / 48 kHz / 192 kbps / DN -4dB
Audio: English / DTS-HD Master Audio / 5.1 / 48 kHz / 4019 kbps / 24-bit (DTS Core: 5.1 / 48 kHz / 1509 kbps / 24-bit)
Subtitle: English / 46,935 kbps Disc Title: Cosmos.A.Spacetime.Odyssey.2014.S01E09.BluRay.Remux.1080p.Rus.Eng.HDCLUB
Disc Size: 13 434 394 900 bytes
Protection: AACS
BD-Java: No
BDInfo: 0.5.8
Notes:
BDINFO HOME:
Cinema Squid
http://www.cinemasquid.com/blu-ray/tools/bdinfo
INCLUDES FORUMS REPORT FOR:
AVS Forum Blu-ray Audio and Video Specifications Thread
http://www.avsforum.com/avs-vb/showthread.php?t=1155731
********************
PLAYLIST: 00000.MPLS
********************
Total   Video
Title                                                           Codec   Length  Movie Size      Disc Size       Bitrate Bitrate Main Audio Track                          Secondary Audio Track
-----                                                           ------  ------- --------------  --------------  ------- ------- ------------------                        ---------------------
00000.MPLS                                                      AVC     0:44:18 13 434 355 776  13 434 394 900  40,42   34,11   DD AC3 2.0 192Kbps
DISC INFO:
Disc Title:     Cosmos.A.Spacetime.Odyssey.2014.S01E09.BluRay.Remux.1080p.Rus.Eng.HDCLUB
Disc Size:      13 434 394 900 bytes
Protection:     AACS
BD-Java:        No
BDInfo:         0.5.8
PLAYLIST REPORT:
Name:                   00000.MPLS
Length:                 0:44:18.781 (h:m:s.ms)
Size:                   13 434 355 776 bytes
Total Bitrate:          40,42 Mbps
VIDEO:
Codec                   Bitrate             Description
-----                   -------             -----------
MPEG-4 AVC Video        34112 kbps          1080p / 23,976 fps / 16:9 / High Profile 4.1
AUDIO:
Codec                           Language        Bitrate         Description
-----                           --------        -------         -----------
Dolby Digital Audio             Russian         192 kbps        2.0 / 48 kHz / 192 kbps / DN -4dB
DTS-HD Master Audio             English         4046 kbps       5.1 / 48 kHz / 4046 kbps / 24-bit (DTS Core: 5.1 / 48 kHz / 1509 kbps / 24-bit)
SUBTITLES:
Codec                           Language        Bitrate         Description
-----                           --------        -------         -----------
Presentation Graphics           English         50,751 kbps
FILES:
Name            Time In         Length          Size            Total Bitrate
----            -------         ------          ----            -------------
00000.M2TS      0:00:00.000     0:44:18.781     13 434 355 776  40 431
CHAPTERS:
Number          Time In         Length          Avg Video Rate  Max 1-Sec Rate  Max 1-Sec Time  Max 5-Sec Rate  Max 5-Sec Time  Max 10Sec Rate  Max 10Sec Time  Avg Frame Size  Max Frame Size  Max Frame Time
------          -------         ------          --------------  --------------  --------------  --------------  --------------  --------------  --------------  --------------  --------------  --------------
1               0:00:00.000     0:03:41.930     35 539 kbps     46 212 kbps     00:02:55.300    37 548 kbps     00:03:36.174    37 040 kbps     00:01:50.985    185 247 bytes   639 085 bytes   00:02:02.997
2               0:03:41.930     0:03:27.956     36 520 kbps     40 710 kbps     00:04:11.876    37 586 kbps     00:05:42.800    37 059 kbps     00:05:37.879    190 399 bytes   640 749 bytes   00:05:50.600
3               0:07:09.886     0:05:22.195     36 224 kbps     41 180 kbps     00:07:31.159    37 391 kbps     00:07:27.155    36 965 kbps     00:07:09.887    188 857 bytes   639 829 bytes   00:07:24.652
4               0:12:32.082     0:02:23.769     36 612 kbps     40 917 kbps     00:14:54.268    37 578 kbps     00:14:50.264    37 211 kbps     00:14:45.134    190 878 bytes   620 373 bytes   00:14:55.769
5               0:14:55.851     0:03:21.868     36 265 kbps     46 879 kbps     00:15:31.555    38 689 kbps     00:15:27.551    37 536 kbps     00:15:22.546    189 069 bytes   640 861 bytes   00:14:59.773
6               0:18:17.720     0:01:58.452     35 438 kbps     39 684 kbps     00:18:39.910    37 318 kbps     00:18:35.781    36 981 kbps     00:18:30.776    184 757 bytes   584 640 bytes   00:20:05.162
7               0:20:16.172     0:03:52.897     35 825 kbps     52 014 kbps     00:22:49.659    39 310 kbps     00:22:17.461    38 073 kbps     00:22:12.456    186 772 bytes   509 128 bytes   00:22:50.368
8               0:24:09.070     0:03:22.035     36 033 kbps     39 470 kbps     00:26:40.140    37 415 kbps     00:25:51.424    36 993 kbps     00:25:46.503    187 862 bytes   527 359 bytes   00:26:25.959
9               0:27:31.105     0:05:09.059     36 212 kbps     40 189 kbps     00:28:47.559    37 306 kbps     00:28:43.555    36 983 kbps     00:31:57.790    188 792 bytes   637 884 bytes   00:28:49.477
10              0:32:40.165     0:04:36.359     36 137 kbps     39 855 kbps     00:36:30.021    37 385 kbps     00:35:35.174    36 970 kbps     00:35:08.272    188 404 bytes   639 365 bytes   00:35:39.470
11              0:37:16.524     0:04:24.139     35 786 kbps     41 490 kbps     00:37:30.414    37 458 kbps     00:37:26.410    36 998 kbps     00:37:21.405    186 574 bytes   514 536 bytes   00:38:14.709
12              0:41:40.663     0:02:38.117     3 089 kbps      46 013 kbps     00:44:15.611    23 660 kbps     00:44:11.732    12 929 kbps     00:44:06.727    16 171 bytes    403 628 bytes   00:42:41.642
STREAM DIAGNOSTICS:
File            PID             Type            Codec           Language                Seconds                 Bitrate                 Bytes           Packets
----            ---             ----            -----           --------                --------------          --------------          -------------   -----
00000.M2TS      4113 (0x1011)   0x1B            AVC                                     2658,072                34 114                  11 334 764 476  61 639 101
00000.M2TS      4352 (0x1100)   0x81            AC3             rus (Russian)           2658,072                192                     63 795 407      415 335
00000.M2TS      4353 (0x1101)   0x86            DTS-HD MA       eng (English)           2658,072                4 046                   1 344 476 476   7 722 377
00000.M2TS      4608 (0x1200)   0x90            PGS             eng (English)           2658,072                51                      16 863 527      95 292
QUICK SUMMARY:
Disc Title: Cosmos.A.Spacetime.Odyssey.2014.S01E09.BluRay.Remux.1080p.Rus.Eng.HDCLUB
Disc Size: 13 434 394 900 bytes
Protection: AACS
BD-Java: No
Playlist: 00000.MPLS
Size: 13 434 355 776 bytes
Length: 0:44:18.781
Total Bitrate: 40,42 Mbps
Video: MPEG-4 AVC Video / 34112 kbps / 1080p / 23,976 fps / 16:9 / High Profile 4.1
Audio: Russian / Dolby Digital Audio / 2.0 / 48 kHz / 192 kbps / DN -4dB
Audio: English / DTS-HD Master Audio / 5.1 / 48 kHz / 4046 kbps / 24-bit (DTS Core: 5.1 / 48 kHz / 1509 kbps / 24-bit)
Subtitle: English / 50,751 kbps Disc Title: Cosmos.A.Spacetime.Odyssey.2014.S01E10.BluRay.Remux.1080p.Rus.Eng.HDCLUB
Disc Size: 12 830 405 924 bytes
Protection: AACS
BD-Java: No
BDInfo: 0.5.8
Notes:
BDINFO HOME:
Cinema Squid
http://www.cinemasquid.com/blu-ray/tools/bdinfo
INCLUDES FORUMS REPORT FOR:
AVS Forum Blu-ray Audio and Video Specifications Thread
http://www.avsforum.com/avs-vb/showthread.php?t=1155731
********************
PLAYLIST: 00000.MPLS
********************
Total   Video
Title                                                           Codec   Length  Movie Size      Disc Size       Bitrate Bitrate Main Audio Track                          Secondary Audio Track
-----                                                           ------  ------- --------------  --------------  ------- ------- ------------------                        ---------------------
00000.MPLS                                                      AVC     0:42:35 12 830 367 744  12 830 405 924  40,16   33,94   DD AC3 2.0 192Kbps
DISC INFO:
Disc Title:     Cosmos.A.Spacetime.Odyssey.2014.S01E10.BluRay.Remux.1080p.Rus.Eng.HDCLUB
Disc Size:      12 830 405 924 bytes
Protection:     AACS
BD-Java:        No
BDInfo:         0.5.8
PLAYLIST REPORT:
Name:                   00000.MPLS
Length:                 0:42:35.886 (h:m:s.ms)
Size:                   12 830 367 744 bytes
Total Bitrate:          40,16 Mbps
VIDEO:
Codec                   Bitrate             Description
-----                   -------             -----------
MPEG-4 AVC Video        33943 kbps          1080p / 23,976 fps / 16:9 / High Profile 4.1
AUDIO:
Codec                           Language        Bitrate         Description
-----                           --------        -------         -----------
Dolby Digital Audio             Russian         192 kbps        2.0 / 48 kHz / 192 kbps / DN -4dB
DTS-HD Master Audio             English         3964 kbps       5.1 / 48 kHz / 3964 kbps / 24-bit (DTS Core: 5.1 / 48 kHz / 1509 kbps / 24-bit)
SUBTITLES:
Codec                           Language        Bitrate         Description
-----                           --------        -------         -----------
Presentation Graphics           English         42,097 kbps
FILES:
Name            Time In         Length          Size            Total Bitrate
----            -------         ------          ----            -------------
00000.M2TS      0:00:00.000     0:42:35.886     12 830 367 744  40 159
CHAPTERS:
Number          Time In         Length          Avg Video Rate  Max 1-Sec Rate  Max 1-Sec Time  Max 5-Sec Rate  Max 5-Sec Time  Max 10Sec Rate  Max 10Sec Time  Avg Frame Size  Max Frame Size  Max Frame Time
------          -------         ------          --------------  --------------  --------------  --------------  --------------  --------------  --------------  --------------  --------------  --------------
1               0:00:00.000     0:02:44.372     35 096 kbps     44 744 kbps     00:02:42.620    37 678 kbps     00:02:09.838    36 965 kbps     00:02:33.611    182 929 bytes   554 439 bytes   00:01:49.025
2               0:02:44.372     0:02:17.929     36 316 kbps     46 943 kbps     00:04:21.844    38 834 kbps     00:04:17.840    37 709 kbps     00:04:12.835    189 337 bytes   633 103 bytes   00:04:59.424
3               0:05:02.301     0:05:14.313     35 856 kbps     57 098 kbps     00:07:39.208    40 199 kbps     00:07:35.204    38 416 kbps     00:07:30.199    186 937 bytes   634 865 bytes   00:07:40.918
4               0:10:16.614     0:04:10.833     36 491 kbps     43 050 kbps     00:13:25.012    37 415 kbps     00:14:09.431    37 017 kbps     00:13:13.667    190 244 bytes   579 693 bytes   00:13:23.594
5               0:14:27.448     0:02:35.531     36 002 kbps     55 164 kbps     00:16:59.309    39 946 kbps     00:16:55.305    38 053 kbps     00:16:50.300    187 702 bytes   627 488 bytes   00:17:00.144
6               0:17:02.979     0:05:05.637     35 964 kbps     42 059 kbps     00:17:30.382    37 176 kbps     00:19:18.824    36 925 kbps     00:19:13.819    187 501 bytes   630 182 bytes   00:17:29.840
7               0:22:08.617     0:05:41.007     35 973 kbps     40 551 kbps     00:26:37.679    37 469 kbps     00:25:04.836    37 123 kbps     00:24:59.873    187 545 bytes   443 134 bytes   00:26:38.471
8               0:27:49.625     0:03:41.345     36 094 kbps     46 345 kbps     00:31:00.692    38 658 kbps     00:30:56.688    37 644 kbps     00:30:51.683    188 177 bytes   532 771 bytes   00:30:14.979
9               0:31:30.970     0:02:17.137     35 678 kbps     40 608 kbps     00:32:27.695    37 487 kbps     00:32:23.733    37 069 kbps     00:32:18.686    186 009 bytes   451 714 bytes   00:32:46.130
10              0:33:48.108     0:03:18.782     36 415 kbps     41 002 kbps     00:35:50.147    37 677 kbps     00:35:46.143    37 160 kbps     00:35:41.222    189 853 bytes   458 647 bytes   00:36:11.460
11              0:37:06.890     0:02:51.170     35 592 kbps     42 102 kbps     00:38:19.213    37 600 kbps     00:38:00.486    37 144 kbps     00:37:55.481    185 562 bytes   428 139 bytes   00:39:45.299
12              0:39:58.060     0:02:37.825     3 052 kbps      46 926 kbps     00:42:32.716    24 389 kbps     00:42:28.837    13 455 kbps     00:42:23.832    15 919 bytes    405 174 bytes   00:40:58.038
STREAM DIAGNOSTICS:
File            PID             Type            Codec           Language                Seconds                 Bitrate                 Bytes           Packets
----            ---             ----            -----           --------                --------------          --------------          -------------   -----
00000.M2TS      4113 (0x1011)   0x1B            AVC                                     2555,720                33 945                  10 844 284 804  58 972 013
00000.M2TS      4352 (0x1100)   0x81            AC3             rus (Russian)           2555,720                192                     61 341 696      399 360
00000.M2TS      4353 (0x1101)   0x86            DTS-HD MA       eng (English)           2555,720                3 965                   1 266 536 500   7 282 491
00000.M2TS      4608 (0x1200)   0x90            PGS             eng (English)           2555,720                42                      13 449 307      76 236
QUICK SUMMARY:
Disc Title: Cosmos.A.Spacetime.Odyssey.2014.S01E10.BluRay.Remux.1080p.Rus.Eng.HDCLUB
Disc Size: 12 830 405 924 bytes
Protection: AACS
BD-Java: No
Playlist: 00000.MPLS
Size: 12 830 367 744 bytes
Length: 0:42:35.886
Total Bitrate: 40,16 Mbps
Video: MPEG-4 AVC Video / 33943 kbps / 1080p / 23,976 fps / 16:9 / High Profile 4.1
Audio: Russian / Dolby Digital Audio / 2.0 / 48 kHz / 192 kbps / DN -4dB
Audio: English / DTS-HD Master Audio / 5.1 / 48 kHz / 3964 kbps / 24-bit (DTS Core: 5.1 / 48 kHz / 1509 kbps / 24-bit)
Subtitle: English / 42,097 kbps Disc Title: Cosmos.A.Spacetime.Odyssey.2014.S01E11.BluRay.Remux.1080p.Rus.Eng.HDCLUB
Disc Size: 10 596 570 236 bytes
Protection: AACS
BD-Java: No
BDInfo: 0.5.8
Notes:
BDINFO HOME:
Cinema Squid
http://www.cinemasquid.com/blu-ray/tools/bdinfo
INCLUDES FORUMS REPORT FOR:
AVS Forum Blu-ray Audio and Video Specifications Thread
http://www.avsforum.com/avs-vb/showthread.php?t=1155731
********************
PLAYLIST: 00000.MPLS
********************
Total   Video
Title                                                           Codec   Length  Movie Size      Disc Size       Bitrate Bitrate Main Audio Track                          Secondary Audio Track
-----                                                           ------  ------- --------------  --------------  ------- ------- ------------------                        ---------------------
00000.MPLS                                                      AVC     0:44:32 10 596 532 224  10 596 570 236  31,72   25,77   DD AC3 2.0 192Kbps
DISC INFO:
Disc Title:     Cosmos.A.Spacetime.Odyssey.2014.S01E11.BluRay.Remux.1080p.Rus.Eng.HDCLUB
Disc Size:      10 596 570 236 bytes
Protection:     AACS
BD-Java:        No
BDInfo:         0.5.8
PLAYLIST REPORT:
Name:                   00000.MPLS
Length:                 0:44:32.836 (h:m:s.ms)
Size:                   10 596 532 224 bytes
Total Bitrate:          31,72 Mbps
VIDEO:
Codec                   Bitrate             Description
-----                   -------             -----------
MPEG-4 AVC Video        25768 kbps          1080p / 23,976 fps / 16:9 / High Profile 4.1
AUDIO:
Codec                           Language        Bitrate         Description
-----                           --------        -------         -----------
Dolby Digital Audio             Russian         192 kbps        2.0 / 48 kHz / 192 kbps / DN -4dB
DTS-HD Master Audio             English         4041 kbps       5.1 / 48 kHz / 4041 kbps / 24-bit (DTS Core: 5.1 / 48 kHz / 1509 kbps / 24-bit)
SUBTITLES:
Codec                           Language        Bitrate         Description
-----                           --------        -------         -----------
Presentation Graphics           English         49,219 kbps
FILES:
Name            Time In         Length          Size            Total Bitrate
----            -------         ------          ----            -------------
00000.M2TS      0:00:00.000     0:44:32.836     10 596 532 224  31 716
CHAPTERS:
Number          Time In         Length          Avg Video Rate  Max 1-Sec Rate  Max 1-Sec Time  Max 5-Sec Rate  Max 5-Sec Time  Max 10Sec Rate  Max 10Sec Time  Avg Frame Size  Max Frame Size  Max Frame Time
------          -------         ------          --------------  --------------  --------------  --------------  --------------  --------------  --------------  --------------  --------------  --------------
1               0:00:00.000     0:01:59.953     17 218 kbps     39 243 kbps     00:00:13.471    36 911 kbps     00:00:09.467    36 464 kbps     00:00:04.462    89 733 bytes    452 372 bytes   00:01:04.606
2               0:01:59.953     0:04:45.408     28 925 kbps     39 980 kbps     00:02:37.657    36 927 kbps     00:05:33.374    36 136 kbps     00:05:55.938    150 803 bytes   640 489 bytes   00:02:58.428
3               0:06:45.362     0:03:22.787     30 529 kbps     38 734 kbps     00:09:56.554    37 087 kbps     00:09:52.550    36 848 kbps     00:09:47.461    159 164 bytes   487 509 bytes   00:09:09.632
4               0:10:08.149     0:04:50.580     25 133 kbps     40 088 kbps     00:10:43.267    37 183 kbps     00:10:18.451    36 886 kbps     00:10:13.154    131 031 bytes   546 629 bytes   00:11:09.960
5               0:14:58.729     0:04:58.257     31 756 kbps     39 973 kbps     00:17:35.429    37 164 kbps     00:16:24.733    36 868 kbps     00:17:38.348    165 562 bytes   546 554 bytes   00:15:23.839
6               0:19:56.987     0:04:01.741     27 950 kbps     38 470 kbps     00:20:05.829    37 063 kbps     00:20:01.825    36 755 kbps     00:22:48.325    145 716 bytes   448 510 bytes   00:20:06.830
7               0:23:58.728     0:02:16.386     27 003 kbps     39 295 kbps     00:24:03.441    36 804 kbps     00:24:13.952    36 296 kbps     00:24:10.407    140 783 bytes   370 427 bytes   00:26:04.980
8               0:26:15.114     0:02:16.885     23 466 kbps     39 730 kbps     00:26:46.688    37 305 kbps     00:26:42.767    35 147 kbps     00:28:15.026    122 337 bytes   634 591 bytes   00:26:28.545
9               0:28:32.000     0:03:32.796     29 413 kbps     39 429 kbps     00:30:26.908    37 295 kbps     00:30:23.029    36 952 kbps     00:30:20.777    153 349 bytes   576 696 bytes   00:30:28.785
10              0:32:04.796     0:05:44.219     26 641 kbps     42 000 kbps     00:32:15.850    37 354 kbps     00:32:11.971    36 873 kbps     00:32:07.008    138 892 bytes   635 760 bytes   00:32:08.134
11              0:37:49.015     0:04:04.994     24 653 kbps     38 830 kbps     00:40:50.614    37 156 kbps     00:40:46.569    36 837 kbps     00:40:41.605    128 530 bytes   444 081 bytes   00:37:55.314
12              0:41:54.010     0:02:38.826     2 935 kbps      30 219 kbps     00:44:28.957    16 311 kbps     00:44:25.079    8 970 kbps      00:44:20.074    15 308 bytes    403 628 bytes   00:42:53.988
STREAM DIAGNOSTICS:
File            PID             Type            Codec           Language                Seconds                 Bitrate                 Bytes           Packets
----            ---             ----            -----           --------                --------------          --------------          -------------   -----
00000.M2TS      4113 (0x1011)   0x1B            AVC                                     2672,670                25 769                  8 609 139 646   46 826 123
00000.M2TS      4352 (0x1100)   0x81            AC3             rus (Russian)           2672,670                192                     64 148 736      417 635
00000.M2TS      4353 (0x1101)   0x86            DTS-HD MA       eng (English)           2672,670                4 041                   1 350 115 600   7 754 641
00000.M2TS      4608 (0x1200)   0x90            PGS             eng (English)           2672,670                49                      16 444 317      92 813
QUICK SUMMARY:
Disc Title: Cosmos.A.Spacetime.Odyssey.2014.S01E11.BluRay.Remux.1080p.Rus.Eng.HDCLUB
Disc Size: 10 596 570 236 bytes
Protection: AACS
BD-Java: No
Playlist: 00000.MPLS
Size: 10 596 532 224 bytes
Length: 0:44:32.836
Total Bitrate: 31,72 Mbps
Video: MPEG-4 AVC Video / 25768 kbps / 1080p / 23,976 fps / 16:9 / High Profile 4.1
Audio: Russian / Dolby Digital Audio / 2.0 / 48 kHz / 192 kbps / DN -4dB
Audio: English / DTS-HD Master Audio / 5.1 / 48 kHz / 4041 kbps / 24-bit (DTS Core: 5.1 / 48 kHz / 1509 kbps / 24-bit)
Subtitle: English / 49,219 kbps Disc Title: Cosmos.A.Spacetime.Odyssey.2014.S01E12.BluRay.Remux.1080p.Rus.Eng.HDCLUB
Disc Size: 10 060 369 148 bytes
Protection: AACS
BD-Java: No
BDInfo: 0.5.8
Notes:
BDINFO HOME:
Cinema Squid
http://www.cinemasquid.com/blu-ray/tools/bdinfo
INCLUDES FORUMS REPORT FOR:
AVS Forum Blu-ray Audio and Video Specifications Thread
http://www.avsforum.com/avs-vb/showthread.php?t=1155731
********************
PLAYLIST: 00000.MPLS
********************
Total   Video
Title                                                           Codec   Length  Movie Size      Disc Size       Bitrate Bitrate Main Audio Track                          Secondary Audio Track
-----                                                           ------  ------- --------------  --------------  ------- ------- ------------------                        ---------------------
00000.MPLS                                                      AVC     0:42:03 10 060 333 056  10 060 369 148  31,90   25,92   DD AC3 2.0 192Kbps
DISC INFO:
Disc Title:     Cosmos.A.Spacetime.Odyssey.2014.S01E12.BluRay.Remux.1080p.Rus.Eng.HDCLUB
Disc Size:      10 060 369 148 bytes
Protection:     AACS
BD-Java:        No
BDInfo:         0.5.8
PLAYLIST REPORT:
Name:                   00000.MPLS
Length:                 0:42:03.354 (h:m:s.ms)
Size:                   10 060 333 056 bytes
Total Bitrate:          31,90 Mbps
VIDEO:
Codec                   Bitrate             Description
-----                   -------             -----------
MPEG-4 AVC Video        25921 kbps          1080p / 23,976 fps / 16:9 / High Profile 4.1
AUDIO:
Codec                           Language        Bitrate         Description
-----                           --------        -------         -----------
Dolby Digital Audio             Russian         192 kbps        2.0 / 48 kHz / 192 kbps / DN -4dB
DTS-HD Master Audio             English         4063 kbps       5.1 / 48 kHz / 4063 kbps / 24-bit (DTS Core: 5.1 / 48 kHz / 1509 kbps / 24-bit)
SUBTITLES:
Codec                           Language        Bitrate         Description
-----                           --------        -------         -----------
Presentation Graphics           English         47,898 kbps
FILES:
Name            Time In         Length          Size            Total Bitrate
----            -------         ------          ----            -------------
00000.M2TS      0:00:00.000     0:42:03.354     10 060 333 056  31 895
CHAPTERS:
Number          Time In         Length          Avg Video Rate  Max 1-Sec Rate  Max 1-Sec Time  Max 5-Sec Rate  Max 5-Sec Time  Max 10Sec Rate  Max 10Sec Time  Avg Frame Size  Max Frame Size  Max Frame Time
------          -------         ------          --------------  --------------  --------------  --------------  --------------  --------------  --------------  --------------  --------------  --------------
1               0:00:00.000     0:02:35.154     21 214 kbps     38 779 kbps     00:00:35.660    36 896 kbps     00:00:08.174    36 691 kbps     00:00:34.868    110 570 bytes   453 177 bytes   00:01:39.808
2               0:02:35.154     0:02:24.686     28 446 kbps     38 753 kbps     00:04:49.455    36 829 kbps     00:04:09.374    36 748 kbps     00:04:04.369    148 306 bytes   638 060 bytes   00:04:50.248
3               0:04:59.841     0:05:06.513     27 884 kbps     39 746 kbps     00:06:11.829    37 185 kbps     00:06:07.825    36 922 kbps     00:06:02.820    145 374 bytes   566 528 bytes   00:04:59.924
4               0:10:06.354     0:05:56.606     26 167 kbps     40 741 kbps     00:14:37.543    36 953 kbps     00:14:15.271    36 191 kbps     00:14:12.309    136 421 bytes   484 255 bytes   00:14:02.341
5               0:16:02.961     0:03:01.139     25 040 kbps     39 872 kbps     00:17:53.614    33 041 kbps     00:17:52.362    30 868 kbps     00:17:50.569    130 547 bytes   494 868 bytes   00:17:53.655
6               0:19:04.100     0:03:23.078     29 215 kbps     39 007 kbps     00:21:40.048    37 026 kbps     00:21:17.985    36 691 kbps     00:21:17.109    152 314 bytes   513 378 bytes   00:22:08.452
7               0:22:27.179     0:02:23.516     30 629 kbps     41 802 kbps     00:24:18.582    37 330 kbps     00:23:11.556    36 849 kbps     00:23:06.635    159 683 bytes   612 536 bytes   00:23:30.117
8               0:24:50.695     0:03:18.032     30 158 kbps     38 686 kbps     00:25:13.053    36 857 kbps     00:25:39.371    36 793 kbps     00:25:39.371    157 232 bytes   476 568 bytes   00:25:41.248
9               0:28:08.728     0:04:25.472     28 280 kbps     39 873 kbps     00:32:15.183    37 292 kbps     00:32:11.179    36 896 kbps     00:31:36.686    147 438 bytes   551 624 bytes   00:32:16.142
10              0:32:34.201     0:02:57.094     22 664 kbps     39 372 kbps     00:32:48.675    36 955 kbps     00:32:51.844    36 646 kbps     00:32:51.844    118 162 bytes   384 097 bytes   00:34:50.254
11              0:35:31.295     0:03:53.231     31 180 kbps     40 856 kbps     00:39:11.849    37 447 kbps     00:39:15.770    37 027 kbps     00:39:02.840    162 558 bytes   536 115 bytes   00:38:12.832
12              0:39:24.527     0:02:38.827     3 099 kbps      45 971 kbps     00:41:59.183    23 663 kbps     00:41:55.304    12 881 kbps     00:41:50.341    16 164 bytes    400 391 bytes   00:40:13.494
STREAM DIAGNOSTICS:
File            PID             Type            Codec           Language                Seconds                 Bitrate                 Bytes           Packets
----            ---             ----            -----           --------                --------------          --------------          -------------   -----
00000.M2TS      4113 (0x1011)   0x1B            AVC                                     2523,187                25 923                  8 175 957 736   44 469 796
00000.M2TS      4352 (0x1100)   0x81            AC3             rus (Russian)           2523,187                192                     60 560 640      394 275
00000.M2TS      4353 (0x1101)   0x86            DTS-HD MA       eng (English)           2523,187                4 063                   1 281 395 480   7 354 586
00000.M2TS      4608 (0x1200)   0x90            PGS             eng (English)           2523,187                48                      15 107 935      85 400
QUICK SUMMARY:
Disc Title: Cosmos.A.Spacetime.Odyssey.2014.S01E12.BluRay.Remux.1080p.Rus.Eng.HDCLUB
Disc Size: 10 060 369 148 bytes
Protection: AACS
BD-Java: No
Playlist: 00000.MPLS
Size: 10 060 333 056 bytes
Length: 0:42:03.354
Total Bitrate: 31,90 Mbps
Video: MPEG-4 AVC Video / 25921 kbps / 1080p / 23,976 fps / 16:9 / High Profile 4.1
Audio: Russian / Dolby Digital Audio / 2.0 / 48 kHz / 192 kbps / DN -4dB
Audio: English / DTS-HD Master Audio / 5.1 / 48 kHz / 4063 kbps / 24-bit (DTS Core: 5.1 / 48 kHz / 1509 kbps / 24-bit)
Subtitle: English / 47,898 kbps Disc Title: Cosmos.A.Spacetime.Odyssey.2014.S01E13.BluRay.Remux.1080p.Rus.Eng.HDCLUB
Disc Size: 10 934 700 172 bytes
Protection: AACS
BD-Java: No
BDInfo: 0.5.8
Notes:
BDINFO HOME:
Cinema Squid
http://www.cinemasquid.com/blu-ray/tools/bdinfo
INCLUDES FORUMS REPORT FOR:
AVS Forum Blu-ray Audio and Video Specifications Thread
http://www.avsforum.com/avs-vb/showthread.php?t=1155731
********************
PLAYLIST: 00000.MPLS
********************
Total   Video
Title                                                           Codec   Length  Movie Size      Disc Size       Bitrate Bitrate Main Audio Track                          Secondary Audio Track
-----                                                           ------  ------- --------------  --------------  ------- ------- ------------------                        ---------------------
00000.MPLS                                                      AVC     0:46:00 10 934 661 120  10 934 700 172  31,69   25,76   DD AC3 2.0 192Kbps
DISC INFO:
Disc Title:     Cosmos.A.Spacetime.Odyssey.2014.S01E13.BluRay.Remux.1080p.Rus.Eng.HDCLUB
Disc Size:      10 934 700 172 bytes
Protection:     AACS
BD-Java:        No
BDInfo:         0.5.8
PLAYLIST REPORT:
Name:                   00000.MPLS
Length:                 0:46:00.841 (h:m:s.ms)
Size:                   10 934 661 120 bytes
Total Bitrate:          31,69 Mbps
VIDEO:
Codec                   Bitrate             Description
-----                   -------             -----------
MPEG-4 AVC Video        25760 kbps          1080p / 23,976 fps / 16:9 / High Profile 4.1
AUDIO:
Codec                           Language        Bitrate         Description
-----                           --------        -------         -----------
Dolby Digital Audio             Russian         192 kbps        2.0 / 48 kHz / 192 kbps / DN -4dB
DTS-HD Master Audio             English         4020 kbps       5.1 / 48 kHz / 4020 kbps / 24-bit (DTS Core: 5.1 / 48 kHz / 1509 kbps / 24-bit)
SUBTITLES:
Codec                           Language        Bitrate         Description
-----                           --------        -------         -----------
Presentation Graphics           English         49,087 kbps
FILES:
Name            Time In         Length          Size            Total Bitrate
----            -------         ------          ----            -------------
00000.M2TS      0:00:00.000     0:46:00.841     10 934 661 120  31 685
CHAPTERS:
Number          Time In         Length          Avg Video Rate  Max 1-Sec Rate  Max 1-Sec Time  Max 5-Sec Rate  Max 5-Sec Time  Max 10Sec Rate  Max 10Sec Time  Avg Frame Size  Max Frame Size  Max Frame Time
------          -------         ------          --------------  --------------  --------------  --------------  --------------  --------------  --------------  --------------  --------------  --------------
1               0:00:00.000     0:04:49.372     24 589 kbps     38 900 kbps     00:02:56.050    37 244 kbps     00:03:08.354    36 902 kbps     00:03:03.349    128 179 bytes   495 889 bytes   00:01:18.328
2               0:04:49.372     0:02:34.319     29 865 kbps     40 232 kbps     00:05:47.847    37 386 kbps     00:05:43.843    36 941 kbps     00:06:01.611    155 704 bytes   639 550 bytes   00:05:42.884
3               0:07:23.692     0:03:20.742     28 799 kbps     37 869 kbps     00:07:46.174    36 921 kbps     00:07:42.044    36 371 kbps     00:07:37.039    150 147 bytes   396 484 bytes   00:07:45.715
4               0:10:44.434     0:02:25.061     28 360 kbps     37 824 kbps     00:11:58.926    36 865 kbps     00:11:42.159    34 532 kbps     00:11:41.033    147 856 bytes   440 065 bytes   00:12:10.688
5               0:13:09.496     0:03:37.257     25 888 kbps     37 751 kbps     00:15:52.660    36 936 kbps     00:15:48.656    32 499 kbps     00:15:47.655    134 968 bytes   353 156 bytes   00:14:30.578
6               0:16:46.754     0:04:44.326     26 091 kbps     44 165 kbps     00:20:10.584    37 837 kbps     00:20:06.580    36 991 kbps     00:19:54.443    136 024 bytes   567 044 bytes   00:20:04.244
7               0:21:31.080     0:05:45.971     27 162 kbps     37 889 kbps     00:26:49.899    36 852 kbps     00:24:23.336    36 762 kbps     00:24:00.147    141 612 bytes   421 219 bytes   00:25:40.413
8               0:27:17.051     0:04:01.783     29 823 kbps     39 847 kbps     00:30:52.850    36 933 kbps     00:30:47.053    36 766 kbps     00:29:17.297    155 483 bytes   522 182 bytes   00:31:13.329
9               0:31:18.835     0:02:12.882     26 286 kbps     42 781 kbps     00:32:14.724    36 949 kbps     00:31:19.210    35 324 kbps     00:31:19.210    137 045 bytes   542 842 bytes   00:31:22.755
10              0:33:31.718     0:04:06.203     27 266 kbps     36 715 kbps     00:37:34.794    36 589 kbps     00:37:32.875    35 810 kbps     00:37:27.912    142 151 bytes   329 841 bytes   00:34:40.661
11              0:37:37.921     0:05:44.469     26 832 kbps     43 421 kbps     00:39:42.630    37 044 kbps     00:42:33.759    36 892 kbps     00:42:28.754    139 888 bytes   640 471 bytes   00:41:25.816
12              0:43:22.390     0:02:38.450     2 531 kbps      16 607 kbps     00:45:57.671    9 142 kbps      00:45:53.792    5 636 kbps      00:45:48.787    13 204 bytes    361 324 bytes   00:44:11.357
STREAM DIAGNOSTICS:
File            PID             Type            Codec           Language                Seconds                 Bitrate                 Bytes           Packets
----            ---             ----            -----           --------                --------------          --------------          -------------   -----
00000.M2TS      4113 (0x1011)   0x1B            AVC                                     2760,675                25 762                  8 889 981 075   48 353 663
00000.M2TS      4352 (0x1100)   0x81            AC3             rus (Russian)           2760,675                192                     66 260 736      431 385
00000.M2TS      4353 (0x1101)   0x86            DTS-HD MA       eng (English)           2760,675                4 020                   1 387 255 528   7 968 151
00000.M2TS      4608 (0x1200)   0x90            PGS             eng (English)           2760,675                49                      16 940 349      95 855
QUICK SUMMARY:
Disc Title: Cosmos.A.Spacetime.Odyssey.2014.S01E13.BluRay.Remux.1080p.Rus.Eng.HDCLUB
Disc Size: 10 934 700 172 bytes
Protection: AACS
BD-Java: No
Playlist: 00000.MPLS
Size: 10 934 661 120 bytes
Length: 0:46:00.841
Total Bitrate: 31,69 Mbps
Video: MPEG-4 AVC Video / 25760 kbps / 1080p / 23,976 fps / 16:9 / High Profile 4.1
Audio: Russian / Dolby Digital Audio / 2.0 / 48 kHz / 192 kbps / DN -4dB
Audio: English / DTS-HD Master Audio / 5.1 / 48 kHz / 4020 kbps / 24-bit (DTS Core: 5.1 / 48 kHz / 1509 kbps / 24-bit)
Subtitle: English / 49,087 kbps
Скриншоты:




Показать сообщения:    

Текущее время: 23-Июн 19:23

Часовой пояс: UTC + 11


Вы не можете начинать темы
Вы не можете отвечать на сообщения
Вы не можете редактировать свои сообщения
Вы не можете удалять свои сообщения
Вы не можете голосовать в опросах
Вы не можете прикреплять файлы к сообщениям
Вы не можете скачивать файлы

Сайт не предоставляет электронные версии произведений, а занимается лишь коллекционированием и каталогизацией ссылок, присылаемых и публикуемых на форуме нашими читателями. Если вы являетесь правообладателем какого-либо представленного материала и не желаете, чтобы ссылка на него находилась в нашем каталоге, свяжитесь с нами, и мы незамедлительно удалим ее. Файлы для обмена на трекере предоставлены пользователями сайта, и администрация не несет ответственности за их содержание. Просьба не заливать файлы, защищенные авторскими правами, а также файлы нелегального содержания!