+100


 

[Цитировать]

-Аленький цветочек (1977) DVD5-Производство: СССР, Киностудия им. Горького
Жанр: Сказка, Семейный, Фэнтези
Режиссер: Ирина Поволоцкая
Актеры: Марина Ильичева, Лев Дуров, Алла Демидова, Алексей Чернов, Александр Абдулов, Валентин Гнебушев
Описание:
Фильм создан по мотивам одноименной сказки русского писателя С.Аксакова.
Было у купца три дочери. Отправляясь в заморское странствие, пообещал он им привезти подарки, какие они пожелают. Две старшие попросили себе тканей и красивых безделушек. И лишь меньшая, любимая, Алена, заказала отцу чудо диковинное, невиданное – аленький цветочек, который видела она во сне. Рос тот цветок в далеких краях, во владениях лесного чудовища. Отправился купец в дорогу. Цветок он нашел, однако оказался пленником чудовища. Вслед за отцом собралась в путь Алена. Ее самопожертвование было вознаграждено: ведь чудищем лесным был заколдованный прекрасный принц. Красавица полюбила его за доброе сердце и освободила от чар злой волшебницы. И сыграли они веселую свадьбу.-
Возраст: 0+ (для любой зрительской аудитории)
Дата премьеры в России: 25 августа 1978
Релиз на DVD: 4 ноября 2003

Релиз от: LOG1NOV-S (NNM-CLUB)
Продолжительность: 01:05:09
Качество видео: DVD5
Видео: MPEG-2, PAL 16:9, 720x576@1024x576, ~7000 Kbps
Аудио: Русский - AC3, 2 ch, 192 Kbps, CBR

MediaInfo:

Общее
Полное имя                               : E:\Аленький цветочек (1977) DVD5 [NNM-CLUB]\VIDEO_TS\VTS_03_1.VOB
Формат                                   : MPEG-PS
Размер файла                             : 1024 Мбайт
Продолжительность                        : 19 м.
Общий поток                              : 7368 Кбит/сек
Видео
Идентификатор                            : 224 (0xE0)
Формат                                   : MPEG Video
Версия формата                           : Version 2
Профиль формата                          : Main@Main
Параметр BVOP формата                    : Да
Параметр матрицы формата                 : Выборочная
Параметр GOP формата                     : M=2, N=4
Структура изображения                    : Frame
Продолжительность                        : 19 м.
Битрейт                                  : 7000 Кбит/сек
Ширина                                   : 720 пикселей
Высота                                   : 576 пикселей
Соотношение сторон                       : 16:9
Частота кадров                           : 25,000 кадров/сек
Стандарт вещания                         : PAL
Цветовое пространство                    : YUV
Субдискретизация насыщенности            : 4:2:0
Битовая глубина                          : 8 бит
Тип развёртки                            : Чересстрочная
Порядок развёртки                        : Верхнее поле первое
Метод сжатия                             : С потерями
Бит/(Пиксели*Кадры)                      : 0.675
Временной код первого кадра              : 00:01:00:08
Оригинал временного кода                 : Group of pictures header
Размер потока                            : 977 Мбайт (95%)
Аудио
Идентификатор                            : 189 (0xBD)-128 (0x80)
Формат                                   : AC-3
Формат/Информация                        : Audio Coding 3
Расширение режима                        : CM (complete main)
Параметр Endianness формата              : Big
Режим смешивания                         : DVD-Video
Продолжительность                        : 19 м.
Вид битрейта                             : Постоянный
Битрейт                                  : 192 Кбит/сек
Каналы                                   : 2 канала
Расположение каналов                     : Front: L R
Частота                                  : 48,0 КГц
Частота кадров                           : 31,250 кадров/сек (1536 spf)
Метод сжатия                             : С потерями
Задержка видео                           : 280 мс.
Размер потока                            : 26,7 Мбайт (3%)
Меню

DVDInfo:

Title: Аленький цветочек (1977) DVD5 [NNM-CLUB]
Size: 3.65 Gb ( 3 827 700,00 KBytes ) - DVD-5
Enabled regions: 1, 2, 3, 4, 5, 6, 7, 8
VTS_01 :
  Play Length: 00:00:10
  Video: PAL 4:3 (720x576) VBR
VTS_02 :
  Play Length: 00:00:21
  Video: PAL 4:3 (720x576) VBR
  Audio:
      Russian (Dolby AC3, 6 ch)
VTS_03 :
  Play Length: 01:05:08
  Video: PAL 16:9 (720x576) VBR, Auto Letterboxed
  Audio:
      Russian (Dolby AC3, 2 ch)
VTS_04 :
  Play Length: 00:03:21
  Video: PAL 4:3 (720x576) VBR
  Audio:
      English (Dolby AC3, 2 ch)
VTS_05 :
  Play Length: 00:02:01
  Video: PAL 4:3 (720x576) VBR
  Audio:
      English (Dolby AC3, 6 ch)
VTS_06 :
  Play Length: 00:01:17
  Video: PAL 4:3 (720x576) VBR
  Audio:
      English (Dolby AC3, 2 ch)

Скриншоты

Скриншоты:




Показать сообщения:    

Текущее время: 17-Янв 10:31

Часовой пояс: UTC + 11


Вы не можете начинать темы
Вы не можете отвечать на сообщения
Вы не можете редактировать свои сообщения
Вы не можете удалять свои сообщения
Вы не можете голосовать в опросах
Вы не можете прикреплять файлы к сообщениям
Вы не можете скачивать файлы

Сайт не предоставляет электронные версии произведений, а занимается лишь коллекционированием и каталогизацией ссылок, присылаемых и публикуемых на форуме нашими читателями. Если вы являетесь правообладателем какого-либо представленного материала и не желаете, чтобы ссылка на него находилась в нашем каталоге, свяжитесь с нами, и мы незамедлительно удалим ее. Файлы для обмена на трекере предоставлены пользователями сайта, и администрация не несет ответственности за их содержание. Просьба не заливать файлы, защищенные авторскими правами, а также файлы нелегального содержания!