+100


 

[Цитировать]

Параграф 78 [01-02 из 02]-Информация о фильме
Название: Параграф 78
Год выхода: 2007
Жанр: фантастика, боевик, триллер
Режиссер: Михаил Хлебородов
В ролях: Гоша Куценко, Владимир Вдовиченков, Григорий Сиятвинда, Слава, Станислав Дужников, Азиз Бейшеналиев, Анатолий Белый, Юсуп Бахшиев, Михаил Ефремов, Александр Тютин
О фильме:
В недалеком будущем команда специального назначения получает новое важное задание, которое становится для давно уже отошедших от дел спецназовцев единственной возможностью снова увидеть бывших соратников по опасным миссиям. Тем более, что очень важные вопросы их личных взаимоотношений так и остались до конца не решенными.
Они так и не приучились называть друг друга по именам, им куда ближе прижившиеся когда-то на службе оперативные псевдонимы, но время и опыт меняют даже тех суперпрофессионалов, что всю жизнь привыкли подчиняться незыблемому и непререкаемому Параграфу. И на сверхсекретной ракетной базе, куда приводит команду высочайший приказ, им придется лицом к лицу столкнуться не только с внешней опасностью, но и друг с другом…


Страна: Россия
Студия: MB Productions, Star Magic, Stimul M Production
Продолжительность: 01:28 + 01:30
Перевод: не требуется
Файл
Кодек: MPEG2
Качество: 2xDVD9 "CP-Digital"
Видео: PAL 16:9 (720x576@1024x576) VBR 5669 Kbps, 25.000 fps
Аудио 1: Dolby AC3, 6 ch, 48.0 KHz, 448 Кbps
Аудио 2: DTS 6 ch, 48.0 KHz, 1536 Кbps
Субтитры: отсутствуют

MediaInfo

General
Complete name : D:Paragraf.78.2xDVD9Paragraf.78-Film.perviy.2007.DVD9VTS_03_1.VOB
Format : MPEG-PS
File size : 1 024 MiB
Duration : 18mn 23s
Overall bit rate mode : Variable
Overall bit rate : 7 781 Kbps
Video
ID : 224 (0xE0)
Format : MPEG Video
Format version : Version 2
Format profile : Main@Main
Format settings, BVOP : Yes
Format settings, Matrix : Custom
Format settings, GOP : M=3, N=15
Format settings, picture st : Frame
Duration : 18mn 23s
Bit rate mode : Variable
Bit rate : 5 669 Kbps
Maximum bit rate : 8 000 Kbps
Width : 720 pixels
Height : 576 pixels
Display aspect ratio : 16:9
Frame rate : 25.000 fps
Standard : PAL
Color space : YUV
Chroma subsampling : 4:2:0
Bit depth : 8 bits
Scan type : Interlaced
Scan order : Top Field First
Compression mode : Lossy
Bits/(Pixel*Frame) : 0.547
Time code of first frame : 01:00:00:00
Time code source : Group of pictures header
GOP, Open/Closed : Closed
Stream size : 746 MiB (73%)
Audio #1
ID : 189 (0xBD)-128 (0x80)
Format : AC-3
Format/Info : Audio Coding 3
Mode extension : CM (complete main)
Format settings, Endianness : Big
Muxing mode : DVD-Video
Duration : 18mn 23s
Bit rate mode : Constant
Bit rate : 448 Kbps
Channel(s) : 6 channels
Channel positions : Front: L C R, Side: L R, LFE
Sampling rate : 48.0 KHz
Compression mode : Lossy
Stream size : 58.9 MiB (6%)
Audio #2
ID : 189 (0xBD)-137 (0x89)
Format : DTS
Format/Info : Digital Theater Systems
Mode : 16
Format settings, Endianness : Big
Muxing mode : DVD-Video
Duration : 18mn 23s
Bit rate mode : Constant
Bit rate : 1 510 Kbps
Channel(s) : 6 channels
Channel positions : Front: L C R, Side: L R, LFE
Sampling rate : 48.0 KHz
Bit depth : 24 bits
Compression mode : Lossy
Stream size : 199 MiB (19%)
Menu




Показать сообщения:    

Текущее время: 20-Июн 23:56

Часовой пояс: UTC + 11


Вы не можете начинать темы
Вы не можете отвечать на сообщения
Вы не можете редактировать свои сообщения
Вы не можете удалять свои сообщения
Вы не можете голосовать в опросах
Вы не можете прикреплять файлы к сообщениям
Вы не можете скачивать файлы

Сайт не предоставляет электронные версии произведений, а занимается лишь коллекционированием и каталогизацией ссылок, присылаемых и публикуемых на форуме нашими читателями. Если вы являетесь правообладателем какого-либо представленного материала и не желаете, чтобы ссылка на него находилась в нашем каталоге, свяжитесь с нами, и мы незамедлительно удалим ее. Файлы для обмена на трекере предоставлены пользователями сайта, и администрация не несет ответственности за их содержание. Просьба не заливать файлы, защищенные авторскими правами, а также файлы нелегального содержания!