+100


 

[Цитировать]

-Классик (1998) DVD5-Год выпуска: 1998
Жанр: Криминал
Описание фильма:
Действующие «асы» бильярда из разных городов России решили сообща сделать подарок своим учителям, доживающим свои дни в богадельнях. Они решили собрать деньги и поселить своих бывших бильярдных наставников в приличном поместье — особняке с участком, с достойным обслуживанием и питанием. Смоленские, питерские и московские авторитеты бильярда сделали свой вклад в «общак».
Дошла очередь до одного из областных авторитетов Савицкого. Вначале он не пожелал участвовать в общем деле, но когда его пристыдили, дал 20 тысяч «зелёных», но вслед сборщикам послал убийц. Те решили, что сделали своё дело, и в руки Савицкого попала вся собранная сумма. Но курьеры смогли выжить после нападения и рассказали всё. И тогда был разработан хитрый план…
Режиссер: Георгий Шенгелия
Актеры: Сергей Никоненко, Юозас Будрайтис, Алексей Гуськов, Валентина Теличкина, Лидия Вележева, Александр Панкратов-Черный, Владимир Этуш, Владимир Зельдин, Евгений Серов, Михаил Шишков
Продолжительность: 01:40:29
Качество видео: DVD5

Видеокодек: MPEG-2
Битрейт видео: ~ 5567 kb/s
Размер кадра: PAL 4:3 (768 x 576) VBR
Аудио: Русский (Dolby AC3, 2 ch) / 48000 Hz / 192 kb/s
Субтитры: Отсутствуют
Бонусы: Отсутствуют
Фильмографии: Отсутствуют
Трейлеры: Отсутствуют
Саундтреки: Отсутствуют

Меню

DVDInfo

Title:
Size: 4.15 Gb ( 4 352 474 KBytes ) - DVD-5
Enabled regions: 1, 2, 3, 4, 5, 6, 7, 8
VTS_01 :
Play Length: 01:40:29
Video: PAL 4:3 (720x576) VBR
Audio:
Russian (Dolby AC3, 2 ch)
VTS_02 :
Play Length: 00:00:10
Video: PAL 4:3 (720x576) VBR
VTS_03 :
Play Length: 00:00:16
Video: PAL 4:3 (720x576) VBR
Audio:
Not specified (Dolby AC3, 2 ch)
Menu Video:
PAL 4:3 (720x576) VBR
Menu Subtitles:
Not specified
Menu English Language Unit :
Root Menu

MediaInfo

Общее
Полное имя : Классик DVD-5\VIDEO_TS\VTS_01_1.VOB
Формат : MPEG-PS
Размер файла : 1024 Мбайт
Продолжительность : 24 м.
Режим общего битрейта : Переменный
Общий поток : 5806 Кбит/сек
Видео
Идентификатор : 224 (0xE0)
Формат : MPEG Video
Версия формата : Version 2
Профиль формата : Main@Main
Параметр BVOP формата : Да
Параметр матрицы формата : Выборочная
Параметр GOP формата : M=3, N=12
Продолжительность : 24 м.
Вид битрейта : Переменный
Битрейт : 5499 Кбит/сек
Максимальный битрейт : 8000 Кбит/сек
Ширина : 720 пикселей
Высота : 576 пикселей
Соотношение сторон : 4:3
Частота кадров : 25,000 кадров/сек
Стандарт вещания : PAL
Цветовое пространство : YUV
Субдискретизация насыщенности : 4:2:0
Битовая глубина : 8 бит
Тип развёртки : Чересстрочная
Порядок развёртки : Верхнее поле первое
Метод сжатия : С потерями
Бит/(Пиксели*Кадры) : 0.530
Временной код первого кадра : 00:00:00:00
Оригинал временного кода : Group of pictures header
Размер потока : 970 Мбайт (95%)
Аудио
Идентификатор : 189 (0xBD)-128 (0x80)
Формат : AC-3
Формат/Информация : Audio Coding 3
Расширение режима : CM (complete main)
Параметр Endianness формата : Big
Режим смешивания : DVD-Video
Продолжительность : 24 м.
Вид битрейта : Постоянный
Битрейт : 192 Кбит/сек
Каналы : 2 канала
Расположение каналов : Front: L R
Частота : 48,0 КГц
Битовая глубина : 16 бит
Метод сжатия : С потерями
Задержка видео : -80 мс.
Размер потока : 33,8 Мбайт (3%)
Меню
Скриншоты:




Показать сообщения:    

Текущее время: 17-Янв 10:27

Часовой пояс: UTC + 11


Вы не можете начинать темы
Вы не можете отвечать на сообщения
Вы не можете редактировать свои сообщения
Вы не можете удалять свои сообщения
Вы не можете голосовать в опросах
Вы не можете прикреплять файлы к сообщениям
Вы не можете скачивать файлы

Сайт не предоставляет электронные версии произведений, а занимается лишь коллекционированием и каталогизацией ссылок, присылаемых и публикуемых на форуме нашими читателями. Если вы являетесь правообладателем какого-либо представленного материала и не желаете, чтобы ссылка на него находилась в нашем каталоге, свяжитесь с нами, и мы незамедлительно удалим ее. Файлы для обмена на трекере предоставлены пользователями сайта, и администрация не несет ответственности за их содержание. Просьба не заливать файлы, защищенные авторскими правами, а также файлы нелегального содержания!