+100


 

[Цитировать]

-Yagd | Создание своих Сборок Windows 7, 8, 8.1 (2013) [PCRec]-Автор (режиссер): Yagd
Cайт: winyagd.ru
Жанр: Видеоурок
Продолжительность: 02:19:28
Качество видео: PCRec
Видеокодек: DivX 5
Битрейт видео: ~30fps 3456 Kbps
Размер кадра: 1920 x 1080
Аудиокодек: MP3
Битрейт аудио: 44100Hz stereo 128 Kbps
Доп. материалы: Имеются
Описание:
Данный Видеоурок создан специально для тех кто устал постоянно скачивать немереное количество сборок, тестировать их и подбирать для себя оптимальный вариант. Посмотрев урок Вы сами сможете создавать качественные сборки Windows 7\8\8.1. Потратив всего 2 часа на обучение вы будете создавать сборки Windows как для себя так и для своих друзей!
Данный пакет состоит из Видеоурока который разделен на 2 видеофайла, а также в нем находятся необходимые файлы для создания сборок!

MI

Video
ID : 0
Format : MPEG-4 Visual
Format profile : Simple@L1
Format settings, BVOP : No
Format settings, QPel : No
Format settings, GMC : No warppoints
Format settings, Matrix : Default (H.263)
Codec ID : DX50
Codec ID/Hint : DivX 5
Duration : 48mn 47s
Bit rate : 3 456 Kbps
Width : 1 920 pixels
Height : 1 080 pixels
Display aspect ratio : 16:9
Frame rate : 29.970 fps
Color space : YUV
Chroma subsampling : 4:2:0
Bit depth : 8 bits
Scan type : Progressive
Compression mode : Lossy
Bits/(Pixel*Frame) : 0.056
Stream size : 1.18 GiB (96%)
Writing library : Lavc54.86.100
Audio
ID : 1
Format : MPEG Audio
Format version : Version 1
Format profile : Layer 3
Mode : Joint stereo
Mode extension : MS Stereo
Codec ID : 55
Codec ID/Hint : MP3
Duration : 48mn 47s
Bit rate mode : Constant
Bit rate : 128 Kbps
Channel count : 2 channels
Sampling rate : 44.1 KHz
Compression mode : Lossy
Stream size : 44.7 MiB (4%)
Alignment : Aligned on interleaves
Interleave, duration : 26 ms (0.78 video frame)
Interleave, preload duration : 26 ms
Writing library : LAME3.98.4
Скриншоты:
-




Показать сообщения:    

Текущее время: 23-Июн 19:23

Часовой пояс: UTC + 11


Вы не можете начинать темы
Вы не можете отвечать на сообщения
Вы не можете редактировать свои сообщения
Вы не можете удалять свои сообщения
Вы не можете голосовать в опросах
Вы не можете прикреплять файлы к сообщениям
Вы не можете скачивать файлы

Сайт не предоставляет электронные версии произведений, а занимается лишь коллекционированием и каталогизацией ссылок, присылаемых и публикуемых на форуме нашими читателями. Если вы являетесь правообладателем какого-либо представленного материала и не желаете, чтобы ссылка на него находилась в нашем каталоге, свяжитесь с нами, и мы незамедлительно удалим ее. Файлы для обмена на трекере предоставлены пользователями сайта, и администрация не несет ответственности за их содержание. Просьба не заливать файлы, защищенные авторскими правами, а также файлы нелегального содержания!