+100


 

[Цитировать]

Художественная цветокоррекция в Lightroom--

  • Год выпуска: 2014
  • Страна: Россия
  • Тематика: Фотография, работа с фото
  • Тип материала: Обучающие видеуроки
  • Продолжительность: 04:06:06
  • Язык: Русский
  • Автор: Дан Хечо

    Известный фотограф Дан Хечо расскажет о том, как грамотно выстроить рабочий процесс и улучшить качество снимков. На его мастер-классе ты разберешься в тонкостях обработки и цветокоррекции в Adobe Lightroom, узнаешь, как работать с пресетами, научишься тратить на детальную проработку одного снимка около пятнадцати минут и поймешь, почему к съемке нужно готовиться заранее.--
  • Качество: PCRec
  • Формат: MP4
  • Видео кодек: AVC
  • Аудио кодек: AAC
  • Видео: 1280х720, ~459 Kbps, 29.970 fps
  • Аудио: 160 Kbps, 2 ch, 48 Кгц
--

MediaInfo

Format : MPEG-4
Format profile : Base Media / Version 2
Codec ID : mp42
File size : 1.07 GiB
Duration : 4h 6mn
Overall bit rate : 624 Kbps
Encoded date : UTC 2014-06-09 15:56:16
Tagged date : UTC 2014-06-09 15:56:16
Video
ID : 1
Format : AVC
Format/Info : Advanced Video Codec
Format profile : High@L3.1
Format settings, CABAC : Yes
Format settings, ReFrames : 4 frames
Codec ID : avc1
Codec ID/Info : Advanced Video Coding
Duration : 4h 6mn
Bit rate mode : Variable
Bit rate : 459 Kbps
Width : 1 280 pixels
Height : 720 pixels
Display aspect ratio : 16:9
Frame rate mode : Constant
Frame rate : 29.970 fps
Color space : YUV
Chroma subsampling : 4:2:0
Bit depth : 8 bits
Scan type : Progressive
Bits/(Pixel*Frame) : 0.017
Stream size : 810 MiB (74%)
Writing library : x264 core 142 r2409 d6b4e63
Encoding settings : cabac=1 / ref=3 / deblock=1:0:0 / analyse=0x3:0x113 / me=hex / subme=7 / psy=1 / psy_rd=1.00:0.00 / mixed_ref=1 / me_range=16 / chroma_me=1 / trellis=1 / 8x8dct=1 / cqm=0 / deadzone=21,11 / fast_pskip=1 / chroma_qp_offset=-2 / threads=24 / lookahead_threads=4 / sliced_threads=0 / nr=0 / decimate=1 / interlaced=0 / bluray_compat=0 / stitchable=1 / constrained_intra=0 / bframes=3 / b_pyramid=2 / b_adapt=1 / b_bias=0 / direct=1 / weightb=1 / open_gop=0 / weightp=2 / keyint=90 / keyint_min=30 / scenecut=40 / intra_refresh=0 / rc_lookahead=40 / rc=crf / mbtree=1 / crf=20.0 / qcomp=0.60 / qpmin=5 / qpmax=69 / qpstep=4 / vbv_maxrate=3750 / vbv_bufsize=12500 / crf_max=0.0 / nal_hrd=none / filler=0 / ip_ratio=1.40 / aq=1:1.00
Encoded date : UTC 2014-06-09 15:56:16
Tagged date : UTC 2014-06-09 15:56:16
Color primaries : BT.709-5, BT.1361, IEC 61966-2-4, SMPTE RP177
Transfer characteristics : BT.709-5, BT.1361
Matrix coefficients : BT.709-5, BT.1361, IEC 61966-2-4 709, SMPTE RP177
Audio
ID : 2
Format : AAC
Format/Info : Advanced Audio Codec
Format profile : LC
Codec ID : 40
Duration : 4h 6mn
Bit rate mode : Variable
Bit rate : 160 Kbps
Channel(s) : 2 channels
Channel positions : Front: L R
Sampling rate : 48.0 KHz
Compression mode : Lossy
Stream size : 282 MiB (26%)
Encoded date : UTC 2014-06-09 15:56:16
Tagged date : UTC 2014-06-09 15:56:16

Подробный план занятия:

— Теория получения хорошего фото.
— Источники вдохновения.
— Три составные части изображения.
— Восприятие фотографии (свет, геометрия), композиция.
— История обнаженной натуры в изобразительном искусстве.
— Где искать НЮ моделей? Концепция съемок .
— Вопросы "железа" и монитора.
— Принципы «авторского» цвета.
— Способы создания пресетов.
— Проработка объема и доведение
изображения до выставочного вида за 20 мин.
Ты научишься
— Выжимать максимум из Adobe Lightroom
— Создавать пресеты и пользоваться ими
— Сразу снимать так, чтобы обойтись минимумом обработки
— Работать с цветными и черно-белыми фотографиями

Скриншоты





Показать сообщения:    

Текущее время: 23-Июн 19:14

Часовой пояс: UTC + 11


Вы не можете начинать темы
Вы не можете отвечать на сообщения
Вы не можете редактировать свои сообщения
Вы не можете удалять свои сообщения
Вы не можете голосовать в опросах
Вы не можете прикреплять файлы к сообщениям
Вы не можете скачивать файлы

Сайт не предоставляет электронные версии произведений, а занимается лишь коллекционированием и каталогизацией ссылок, присылаемых и публикуемых на форуме нашими читателями. Если вы являетесь правообладателем какого-либо представленного материала и не желаете, чтобы ссылка на него находилась в нашем каталоге, свяжитесь с нами, и мы незамедлительно удалим ее. Файлы для обмена на трекере предоставлены пользователями сайта, и администрация не несет ответственности за их содержание. Просьба не заливать файлы, защищенные авторскими правами, а также файлы нелегального содержания!