+100


 

[Цитировать]

Как фотографировать людей красиво--

  • Год выпуска: 2014
  • Страна: Россия
  • Тематика: Фотография, работа с фото
  • Тип материала: Обучающие видеуроки
  • Продолжительность: 18:49:26
  • Язык: Русский
  • Автор: Роман Синичкин и Степан Каморный

    Снять удачный портрет совсем не сложно, просто нужно знать главные правила и секреты о том, как снимать людей красиво.
    Отличный портрет можно снять любой камерой, не важно, зеркалка у вас или мыльница, и в любых условиях. Главное знать технологию и выполнять ряд не сложных правил.
    Если Вы хотите научиться фотографировать легко, недорого и чтобы всё вам объяснили простым человеческим языком, то данный курс для Вас.
    --
  • Качество: PCRec
  • Формат: MP4
  • Видео кодек: AVC
  • Аудио кодек: AAC
  • Видео: 640x480, ~149 Kbps, 25 fps
  • Аудио: 109 Kbps, 2 ch, 44.1 Кгц
--

MediaInfo

Формат : MPEG-4
Профиль формата : Base Media / Version 2
Идентификатор кодека : mp42
Размер файла : 210 Мбайт
Продолжительность : 1 ч. 51 м.
Режим общего битрейта : Переменный
Общий поток : 264 Кбит/сек
Дата кодирования : UTC 2013-07-02 18:12:21
Дата пометки : UTC 2013-07-02 18:12:21
Видео
Идентификатор : 1
Формат : AVC
Формат/Информация : Advanced Video Codec
Профиль формата : High@L3.1
Параметр CABAC формата : Да
Параметр ReFrames формата : 4 кадра
Идентификатор кодека : avc1
Идентификатор кодека/Информация : Advanced Video Coding
Продолжительность : 1 ч. 51 м.
Битрейт : 150 Кбит/сек
Ширина : 640 пикселей
Высота : 480 пикселей
Соотношение сторон : 4:3
Режим частоты кадров : Постоянный
Частота кадров : 25,000 кадров/сек
Цветовое пространство : YUV
Субдискретизация насыщенности : 4:2:0
Битовая глубина : 8 бит
Тип развёртки : Прогрессивная
Бит/(Пиксели*Кадры) : 0.020
Размер потока : 119 Мбайт (57%)
Библиотека кодирования : x264 core 129 r2245 bc13772
Настройки программы : cabac=1 / ref=3 / deblock=1:0:0 / analyse=0x3:0x113 / me=hex / subme=7 / psy=1 / psy_rd=1.00:0.00 / mixed_ref=1 / me_range=16 / chroma_me=1 / trellis=1 / 8x8dct=1 / cqm=0 / deadzone=21,11 / fast_pskip=1 / chroma_qp_offset=-2 / threads=12 / lookahead_threads=2 / sliced_threads=0 / nr=0 / decimate=1 / interlaced=0 / bluray_compat=0 / constrained_intra=0 / bframes=3 / b_pyramid=2 / b_adapt=1 / b_bias=0 / direct=1 / weightb=1 / open_gop=0 / weightp=2 / keyint=75 / keyint_min=25 / scenecut=40 / intra_refresh=0 / rc_lookahead=40 / rc=2pass / mbtree=1 / bitrate=150 / ratetol=1.0 / qcomp=0.60 / qpmin=5 / qpmax=69 / qpstep=4 / cplxblur=20.0 / qblur=0.5 / vbv_maxrate=1125 / vbv_bufsize=3750 / nal_hrd=none / ip_ratio=1.40 / aq=1:1.00
Дата кодирования : UTC 2013-07-02 18:12:21
Дата пометки : UTC 2013-07-02 18:12:21
Аудио
Идентификатор : 2
Формат : AAC
Формат/Информация : Advanced Audio Codec
Профиль формата : LC
Идентификатор кодека : 40
Продолжительность : 1 ч. 51 м.
Продолжительность оригинала : 1 ч. 51 м.
Вид битрейта : Переменный
Битрейт : 110 Кбит/сек
Каналы : 2 канала
Расположение каналов : Front: L R
Частота : 44,1 КГц
Метод сжатия : С потерями
Задержка видео : 34 мс.
Размер потока : 87,2 Мбайт (42%)
Размер потока оригинала : 87,2 Мбайт (42%)
Дата кодирования : UTC 2013-07-02 18:12:21
Дата пометки : UTC 2013-07-02 18:12:21

Дополнительная информация:

Что Вам дает курс
1. Умение делать отличные снимки в любых условиях:
Фотографировать на улице и в помещении.
Проводить фотосессию в студии.
Снимать против солнца.
Создавать прекрасные кадры при любых погодных условиях.
Успешно фотографировать в тени и на солнце.
2. Понимание, как использовать Ваш фотоаппарат эффективно:
Выбирать подходящее оборудование.
Правильно настраивать фотоаппарат для каждого из вида съемок.
Работать с отражателем и вспышкой.
Работать с диафрагмой и выдержкой.
Делать эффектные фото с размытым задним фоном.
3. Навык создавать фото как художник:
Профессионально работать с человеком в кадре
Строить кадр по всем правилам композиции
Создавать красивые, эмоциональные, живые портреты
4. Знание, как сделать Ваши снимки выразительными и гармоничными после обработки:
Создавать сногсшибательные черно-белые фотографии
Ретушировать портреты
5. Вы прикоснетесь к миру профессиональной фотографии:
Проводить фото сессию по всем правилам
Создавать восхитительные фото истории
Собрать портфолио
Успешно вести переговоры с заказчиком

Скриншоты





Показать сообщения:    

Текущее время: 20-Июн 11:14

Часовой пояс: UTC + 11


Вы не можете начинать темы
Вы не можете отвечать на сообщения
Вы не можете редактировать свои сообщения
Вы не можете удалять свои сообщения
Вы не можете голосовать в опросах
Вы не можете прикреплять файлы к сообщениям
Вы не можете скачивать файлы

Сайт не предоставляет электронные версии произведений, а занимается лишь коллекционированием и каталогизацией ссылок, присылаемых и публикуемых на форуме нашими читателями. Если вы являетесь правообладателем какого-либо представленного материала и не желаете, чтобы ссылка на него находилась в нашем каталоге, свяжитесь с нами, и мы незамедлительно удалим ее. Файлы для обмена на трекере предоставлены пользователями сайта, и администрация не несет ответственности за их содержание. Просьба не заливать файлы, защищенные авторскими правами, а также файлы нелегального содержания!