+100


 

[Цитировать]

-7 уроков по 3d max / 7 urokov po 3d max--Тип раздаваемого материала: Видеоурок
Страна: Россия
Год выпуска: 2010 г.
Жанр: видеоуроки
Продолжительность: 07:25:48
Язык: Русский
Перевод: Не требуется
Cубтитры: отсутствуют
Совместимость с Windows 7: полная
Таблэтка: Не требуется
Системные требования: Любой установленный на компьютере проигрователь видео файлов
Описание: Очень хорошо подобранный видео ряд,на русском языке. Это большая редкость.
Рассказчик не косноязычный, в довольно доступной и простой форме рассказывает об основах работы в программе 3D MAX.
Уроки построены по принципу "от простого к сложному".
Разрешение видео 1024х736, позволяет организовать даже групповой просмотр на большом экране.
Можно смело писать материал на DVD c хорошим качеством.
Очень хороший и нужный материал . Будет хорошей находкой для начинающих, осваивать программу и даст им глубокие азы,
продвинутые пользователи данной программы увидят тоже много интересного.
Фильмы могут работать, как самостоятельный курс по освоению программы 3D MAX.-Качество видео: DVDRip
Контейнер: AVI
Видео кодек: XviD
Аудио кодек: AC3
Видео: 966 x 693 (1.39:1), 10 fps, ~775 Kbps, 0.103 bit/pix
Аудио: 22.050 kHz, Microsoft PCM, 1 ch, ~176.40 kbps avg

Media Info

Format : AVI
Format/Info : Audio Video Interleave
File size : 536 MiB
Duration : 1h 18mn
Overall bit rate : 953 Kbps
Video
ID : 0
Format : MPEG-4 Visual
Format settings, BVOP : No
Format settings, QPel : No
Format settings, GMC : No warppoints
Format settings, Matrix : Default (H.263)
Codec ID : DIVX
Codec ID/Info : Project Mayo
Codec ID/Hint : DivX 4
Duration : 1h 18mn
Bit rate : 775 Kbps
Width : 1 024 pixels
Height : 736 pixels
Display aspect ratio : 1.391
Frame rate : 10.000 fps
Color space : YUV
Chroma subsampling : 4:2:0
Bit depth : 8 bits
Scan type : Progressive
Compression mode : Lossy
Bits/(Pixel*Frame) : 0.103
Stream size : 435 MiB (81%)
Audio
ID : 1
Format : PCM
Format settings, Endianness : Little
Format settings, Sign : Unsigned
Codec ID : 1
Duration : 1h 18mn
Bit rate mode : Constant
Bit rate : 176.4 Kbps
Channel count : 1 channel
Sampling rate : 22.05 KHz
Bit depth : 8 bits
Stream size : 99.1 MiB (19%)
Alignment : Aligned on interleaves
Interleave, duration : 1000 ms (10.00 video frames)
Interleave, preload duration : 1000 ms

Скриншоты





Показать сообщения:    

Текущее время: 20-Июн 11:14

Часовой пояс: UTC + 11


Вы не можете начинать темы
Вы не можете отвечать на сообщения
Вы не можете редактировать свои сообщения
Вы не можете удалять свои сообщения
Вы не можете голосовать в опросах
Вы не можете прикреплять файлы к сообщениям
Вы не можете скачивать файлы

Сайт не предоставляет электронные версии произведений, а занимается лишь коллекционированием и каталогизацией ссылок, присылаемых и публикуемых на форуме нашими читателями. Если вы являетесь правообладателем какого-либо представленного материала и не желаете, чтобы ссылка на него находилась в нашем каталоге, свяжитесь с нами, и мы незамедлительно удалим ее. Файлы для обмена на трекере предоставлены пользователями сайта, и администрация не несет ответственности за их содержание. Просьба не заливать файлы, защищенные авторскими правами, а также файлы нелегального содержания!